Конан-руйнівник / Conan the Destroyer (1984) 1080p 2xUkr/Eng | sub Eng

Нові коментарі

Нова тема   Відповісти
Автор Повідомлення
Anonymous 







2019-04-01 18:36  
Конан-руйнівник / Conan the Destroyer (1984) 1080p 2xUkr/Eng | sub Eng

Конан-руйнівник / Conan the Destroyer (1984) 1080p 2xUkr/Eng | sub Eng


Жанр: бойовик, фентезі, пригодницький
Країна: США



Кінокомпанія: De Laurentiis
Режисер: Річард Флайшер (Richard Fleischer)
Актори: Арнольд Шварценеґґер (Arnold Schwarzenegger), Ґрейс Джонс (Grace Jones), Вілт Чемберлейн (Wilt Chamberlain), Мако (Mako), Трейси Волтер (Tracey Walter), Сара Дуґлас (Sarah Douglas) та інші.

Сюжет:
Ідеальна картина в жанрі фентезі з мечами і чарівниками. Королева наймає Конана супроводжувати принцесу в далекий замок, де зберігається коштовний камінь, здатний вивільнити потужні і незвідані сили...

Підступна королева наказала своєму воїнові вбити Конана, коли завдання буде виконано, і повернути додому принцесу, не ушкодивши її незайманості, щоби принести її в жертву.

Дорогою група зустрічає темношкіру і вибухову жінку-воїна. Довгонога дикунка здатна здолати чимало ворогів...


Тривалість: 01:41:16
Якість:
Відео:
кодек:
розмір кадру: 1920 х 816
бітрейт: 9 297 кб/с

Аудіо # 1:
мова: українська
переклад: двоголосий закадровий
кодек: 2.0
бітрейт: 192 кб/с

Аудіо # 2:
мова: українська
переклад: багатоголосий закадровий
кодек: 2.0
бітрейт: 192 кб/с

Аудіо # 3:
мова: англійська
переклад: оригінал
кодек: 5.1
бітрейт: 1 509 кб/с

Субтитри:
мова: англійська
тип: програмні (м'які)
формат: *.srt
Info
General
Unique ID : 269036156445630835651109530662752002118 (0xCA667A9E92F919734A0AAF6F0284A046)
Complete name : G:\HD Films\Conan The Destroyer (1984) 1080p [2xukr.eng] Hurtom.
Format :
Format version : Version 4
File size : 7.91 GiB
Duration : 1 h 41 min
Overall bit rate : 11.2 Mb/s
Encoded date : UTC 2019-04-01 16:06:43
Writing application : v32.0.0 ('Astral Progressions') 64-bit
Writing library : libebml v1.3.7 + v1.5.0

Video
ID : 1
Format : AVC
Format/Info : Advanced Video Codec
Format profile : [email protected]
Format settings : CABAC / 5 Ref Frames
Format settings, CABAC : Yes
Format settings, ReFrames : 5 frames
Codec ID : V_MPEG4/ISO/AVC
Duration : 1 h 41 min
Bit rate : 9 297 kb/s
Width : 1 920 pixels
Height : 816 pixels
Display aspect ratio : 2.35:1
Frame rate mode : Constant
Frame rate : 23.976 (24000/1001) FPS
Color space : YUV
Chroma subsampling : 4:2:0
Bit depth : 8 bits
Scan type : Progressive
Bits/(Pixel*Frame) : 0.247
Stream size : 6.57 GiB (83%)
Writing library : core 115 r2008 4c552d8
Encoding settings : cabac=1 / ref=5 / deblock=1:-1:-1 / analyse=0x3:0x113 / me=umh / subme=7 / psy=1 / psy_rd=1.00:0.00 / mixed_ref=1 / me_range=16 / chroma_me=1 / trellis=1 / 8x8dct=1 / cqm=0 / deadzone=21,11 / fast_pskip=1 / chroma_qp_offset=-2 / threads=12 / sliced_threads=0 / nr=0 / decimate=1 / interlaced=0 / bluray_compat=0 / constrained_intra=0 / bframes=3 / b_pyramid=2 / b_adapt=2 / b_bias=0 / direct=3 / weightb=1 / open_gop=0 / weightp=2 / keyint=250 / keyint_min=23 / scenecut=40 / intra_refresh=0 / rc_lookahead=40 / rc=2pass / mbtree=1 / bitrate=9297 / ratetol=1.0 / qcomp=0.60 / qpmin=0 / qpmax=69 / qpstep=4 / cplxblur=20.0 / qblur=0.5 / vbv_maxrate=50000 / vbv_bufsize=50000 / nal_hrd=none / ip_ratio=1.40 / aq=1:1.00
Language : English
Default : Yes
Forced : Yes

Audio #1
ID : 2
Format : AC-3
Format/Info : Audio Coding 3
Commercial name : Dolby Digital
Codec ID : A_AC3
Duration : 1 h 41 min
Bit rate mode : Constant
Bit rate : 192 kb/s
Channel(s) : 2 channels
Channel layout : L R
Sampling rate : 48.0 kHz
Frame rate : 31.250 FPS (1536 SPF)
Bit depth : 16 bits
Compression mode : Lossy
Stream size : 139 MiB (2%)
Title : 1+1 channel (DVO)
Language : Ukrainian
Service kind : Complete Main
Default : Yes
Forced : Yes

Audio #2
ID : 3
Format : AC-3
Format/Info : Audio Coding 3
Commercial name : Dolby Digital
Codec ID : A_AC3
Duration : 1 h 41 min
Bit rate mode : Constant
Bit rate : 192 kb/s
Channel(s) : 2 channels
Channel layout : L R
Sampling rate : 48.0 kHz
Frame rate : 31.250 FPS (1536 SPF)
Bit depth : 16 bits
Compression mode : Lossy
Stream size : 139 MiB (2%)
Title : ICTV channel (MVO)
Language : Ukrainian
Service kind : Complete Main
Default : No
Forced : No

Audio #3
ID : 4
Format :
Format/Info : Digital Theater Systems
Codec ID : A_DTS
Duration : 1 h 41 min
Bit rate mode : Constant
Bit rate : 1 509 kb/s
Channel(s) : 6 channels
Channel layout : C L R Ls Rs LFE
Sampling rate : 48.0 kHz
Frame rate : 93.750 FPS (512 SPF)
Bit depth : 24 bits
Compression mode : Lossy
Stream size : 1.07 GiB (13%)
Language : English
Default : No
Forced : No

Text
ID : 5
Format : UTF-8
Codec ID : S_TEXT/UTF8
Codec ID/Info : UTF-8 Plain Text
Duration : 1 h 37 min
Bit rate : 18 b/s
Count of elements : 466
Stream size : 13.3 KiB (0%)
Language : English
Default : Yes
Forced : No
Скріншоти











Доріжка від : robotron005

Постер : thefir

Джерело: &


Срібний реліз (на рейтинг впливає 50% завантаженого)
 Трекер:    Зареєстрований   

Завантажити / скачати фільм українською



відео для новачків



 Зареєстрований:   2019-04-01 18:36
 Розмір:   7.91 GB 
 Оцінка фільму:   10/10 (Голосів: 13)
   
+380954897458 
VIP


З нами з: 02.06.17
Востаннє: 23.01.21
Повідомлень: 1056

2019-04-02 20:57  
В Грейс Джонс така екзотична зовнішність! Для мене вона, в першу чергу, виконавиця чудової пісні ''I've Seen That Face Before'', яка так часто звучала в класнючому фільмі Романа Поланського.
DarkToltec 
Новенький


З нами з: 05.04.17
Востаннє: 22.01.21
Повідомлень: 1

2019-08-13 22:30  
Люди, дайте скачати.
Буду на роздачі потім...

olimpian1 
VIP


З нами з: 19.10.13
Востаннє: 21.01.21
Повідомлень: 293

2020-02-21 20:37  
Класика, що тут ще сказати!
Морж 
Свій


З нами з: 23.01.09
Востаннє: 23.01.21
Повідомлень: 79

2021-01-04 12:35  
прикольне кіно.

екшен так собі, але цікава і динамічна історія, ну і Шварц в ідеальній форміHappy

Ваш часовий пояс: GMT + 2 Години

Нова тема   Відповісти