Поганий сезон / The Mean Season (1985) 1080p Ukr/Eng

Нові коментарі

Нова тема   Відповісти
Автор Повідомлення
Anonymous 







2019-04-01 18:25  
Поганий сезон / The Mean Season (1985) 1080p Ukr/Eng

Поганий сезон / The Mean Season (1985) 1080p Ukr/Eng


Жанр: трилер, кримінальний
Країна: США



Кінокомпанія: David Foster Productions, Turman-Foster Company
Режисер: Філліп Борсос
Актори: Курт Расселл, Меріел Хемінгуей, Річард Джордан, Річард Месур, Річард Бредфорд, Джо Пантоліано, Енді Гарсіа, Роуз Портільо, Вільям Сміт, Джон Палмер, Лі Сендмена, Ден Фіцджеральд, Синтія Сакелін, Фред Орнштейн, Майкл Клей, Брюс МакЛафлін, Родні Барретто , Роберт Смолл, Ненсі Дуерр, Марк Філдс, Тамара Джонс, Джоан Мерфі, Пол Нейджел

Сюжет:
За романом Джона Кетценбаха "Спекотного літа" ("In The Heat of The Summer"). Честолюбний репортер (Расселл) і його подружка (Хемінгуей) виявляються втягнутими в похмуре жахіття злочинів. Репортер з огляду на обставини стає єдиним зв'язком з божевільним вбивцею.


Тривалість: 01:44:20
Якість: 1080p

Відео:
кодек:
розмір кадру: 1920х1038
бітрейт: 9817 кб/с

Аудіо # 1:
мова: українська
переклад: двоголосий закадровий
кодек: 2.0
бітрейт: 192 кб/с

Аудіо # 2:
мова: англійська
переклад: оригінал
кодек: 2.0
бітрейт: 1509 кб/с
Info
General
Unique ID : 188710297427626612381953492869163955971 (0x8DF84800DA403954ACB92809B2B6B703)
Complete name : H:\Toloka\2019\The Mean Season (1985) 1080p.
Format :
Format version : Version 4
File size : 8.56 GiB
Duration : 1 h 44 min
Overall bit rate : 11.8 Mb/s
Movie name : The Mean Season [1985] 1080p BluRay
Encoded date : UTC 2019-04-01 15:18:15 / UTC 2017-11-06T03:49:20Z
Writing application : v6.1.0 ('Old Devil') built on Mar 4 2013 09:10:42
Writing library : libebml v1.3.0 + v1.4.0 / Lavf57.7.2

Video
ID : 1
Format : AVC
Format/Info : Advanced Video Codec
Format profile : [email protected]
Format settings : CABAC / 4 Ref Frames
Format settings, CABAC : Yes
Format settings, RefFrames : 4 frames
Codec ID : V_MPEG4/ISO/AVC
Duration : 1 h 44 min
Bit rate : 9 817 kb/s
Width : 1 920 pixels
Height : 1 038 pixels
Display aspect ratio : 1.85:1
Frame rate mode : Constant
Frame rate : 23.976 (24000/1001) FPS
Color space : YUV
Chroma subsampling : 4:2:0
Bit depth : 8 bits
Scan type : Progressive
Bits/(Pixel*Frame) : 0.205
Stream size : 7.15 GiB (84%)
Writing library : core 148 r2708 86b7198
Encoding settings : cabac=1 / ref=4 / deblock=1:-3:-3 / analyse=0x3:0x133 / me=umh / subme=10 / psy=1 / psy_rd=1.00:0.00 / mixed_ref=1 / me_range=32 / chroma_me=1 / trellis=2 / 8x8dct=1 / cqm=0 / deadzone=21,11 / fast_pskip=0 / chroma_qp_offset=-2 / threads=12 / lookahead_threads=3 / sliced_threads=0 / nr=0 / decimate=0 / interlaced=0 / bluray_compat=0 / constrained_intra=0 / bframes=16 / b_pyramid=2 / b_adapt=2 / b_bias=0 / direct=3 / weightb=1 / open_gop=0 / weightp=1 / keyint=240 / keyint_min=24 / scenecut=40 / intra_refresh=0 / rc_lookahead=60 / rc=crf / mbtree=0 / crf=21.2 / qcomp=0.60 / qpmin=0 / qpmax=69 / qpstep=4 / vbv_maxrate=62500 / vbv_bufsize=78125 / crf_max=0.0 / nal_hrd=none / filler=0 / ip_ratio=1.40 / pb_ratio=1.30 / aq=2:1.00
Default : Yes
Forced : No
Color range : Limited
Color primaries : BT.709
Transfer characteristics : BT.709
Matrix coefficients : BT.709
Statistics Tags Issue : v17.0.0 ('Be Ur Friend') 64-bit 2017-11-06 19:48:03 / v6.1.0 ('Old Devil') built on Mar 4 2013 09:10:42 2019-04-01 15:18:15 / UTC 2017-11-06T03:49:20Z
FromStats_BitRate : 10048461
FromStats_Duration : 01:44:19.921000000
FromStats_FrameCount : 150088
FromStats_StreamSize : 7862822036

Audio #1
ID : 2
Format : AC-3
Format/Info : Audio Coding 3
Commercial name : Dolby Digital
Codec ID : A_AC3
Duration : 1 h 44 min
Bit rate mode : Constant
Bit rate : 192 kb/s
Channel(s) : 2 channels
Channel layout : L R
Sampling rate : 48.0 kHz
Frame rate : 31.250 FPS (1536 SPF)
Bit depth : 16 bits
Compression mode : Lossy
Stream size : 143 MiB (2%)
Title : UKR (Kino)
Language : Ukrainian
Service kind : Complete Main
Default : Yes
Forced : Yes

Audio #2
ID : 3
Format :
Format/Info : Digital Theater Systems
Codec ID : A_DTS
Duration : 1 h 44 min
Bit rate mode : Constant
Bit rate : 1 509 kb/s
Channel(s) : 2 channels
Channel layout : L R
Sampling rate : 48.0 kHz
Frame rate : 93.750 FPS (512 SPF)
Bit depth : 24 bits
Compression mode : Lossy
Stream size : 1.10 GiB (13%)
Language : English
Default : No
Forced : No
Statistics Tags Issue : v17.0.0 ('Be Ur Friend') 64-bit 2017-11-06 19:48:03 / v6.1.0 ('Old Devil') built on Mar 4 2013 09:10:42 2019-04-01 15:18:15 / UTC 2017-11-06T03:49:20Z
FromStats_BitRate : 1508999
FromStats_Duration : 01:44:19.990000000
FromStats_FrameCount : 586874
FromStats_StreamSize : 1180790488

Menu
00:00:00.000 : :Chapter 1
00:00:10.928 : :Chapter 2
00:11:37.739 : :Chapter 3
00:22:08.244 : :Chapter 4
00:34:31.820 : :Chapter 5
00:45:53.334 : :Chapter 6
00:56:43.692 : :Chapter 7
01:10:02.031 : :Chapter 8
01:25:23.827 : :Chapter 9
01:44:09.034 : :Chapter 10
Скріншоти





За звукову доріжку подяка п.: olgaya, JACKUS
Особиста подяка пану denixx за надану матеріальну допомогу на підтримку цього і майбутніх релізів.
Джерело:


Срібний реліз (на рейтинг впливає 50% завантаженого)
 Трекер:    Зареєстрований   

Завантажити / скачати фільм українською



відео для новачків



 Зареєстрований:   2019-04-01 18:25
 Розмір:   8.56 GB 
 Оцінка фільму:   8.6/10 (Голосів: 5)
   
Інші релізи
   Поганий сезон / The Mean Season (1985) Ukr/Eng | sub Eng JACKUS  1 / 0   1.46 GB   2010-07-10 02:06 
+380954897458 
Поважний учасник


З нами з: 02.06.17
Востаннє: 23.04.19
Повідомлень: 221

2019-04-01 21:54  
Така велика кількість акторів зазначена, але немає Енді Гарсіа, який грає одну з важливих ролей, а також Річарда Джордана, що перевтілився в головного злодія. Обоє є на скріншотах.
Anonymous 







2019-04-02 07:23  
+380954897458
Дякую. Додав

mur4v3y 
Частий відвідувач


З нами з: 31.10.15
Востаннє: 24.04.19
Повідомлень: 45

2019-04-02 09:57  
В локалізації прізвища Хемінгуей на постері - помилка
igor911 
Відео Гуртом
Відео Гуртом


З нами з: 18.01.08
Востаннє: 24.04.19
Повідомлень: 12336

2019-04-02 11:02  
mur4v3y написано:
на постері - помилка

виправив

+380954897458 
Поважний учасник


З нами з: 02.06.17
Востаннє: 23.04.19
Повідомлень: 221

2019-04-02 21:39  
Anonymous
Будь ласка. Дякую що додали. :-)

Ваш часовий пояс: GMT + 2 Години

Нова тема   Відповісти