Фантастичні звірі і де їх шукати / Fantastic Beasts and Where to Find Them (2016) UHD Remux 2160p 4K HDR H.265 Ukr/Eng | Sub Ukr/Eng

Нові коментарі

Нова тема   Відповісти
Автор Повідомлення
Argentum 
Поважний учасник


З нами з: 25.09.11
Востаннє: 23.04.19
Повідомлень: 192

2019-04-01 13:32  
Фантастичні звірі і де їх шукати / Fantastic Beasts and Where to Find Them (2016) UHD Remux 2160p 4K HDR H.265 Ukr/Eng | Sub Ukr/Eng

Фантастичні звірі і де їх шукати / Fantastic Beasts and Where to Find Them (2016) UHD Remux 2160p 4K HDR H.265 Ukr/Eng | Sub Ukr/Eng


Жанр: фентезі, пригодницький
Країна: США, Велика Британія



Кінокомпанія: Warner Bros
Режисер: Девід Єйтс
Актори: Едді Редмейн, Кетрін Вотерстон, Ден Фоглер, Елісон Судол, Езра Міллер, Саманта Мортон, Колін Фаррелл, Джон Войт, Рон Перлман, Дженн Мюррей, Кармен Іджого, Джонні Депп та інші.

Сюжет:
Нью-Йорк 20-х років ХХ століття. Головний герой – Ньют Скамандер, який приїхав в місто спеціально для того, щоб відвідати секретну спільноту чарівниць та чарівників. Він – відомий дослідник і письменник, а підручники його авторства входять до обов'язкової програми Хогвартсу – знаменитої школи магії. Саме про підручник " Фантастичні звірі і де їх шукати" нам розповідає фільм. Ця книга є переліком фантастичних тварин і містить їх опис. Пориньте у цей чарівний світ!


Тривалість: 02:12:52
Якість: 4K UltraHD Remux 2160p
Відео:
кодек: H.265 (HEVC)
розмір кадру: 3840 х 2160
бітрейт: 49,9 Мб/с
бітова глибина: 10 біт
кольоровий простір: BT.2020 (HDR)

Увага! Перед завантаженням переконайтесь, що ваш пристрій відтворення (та/або ПЗ) підтримує H.265 (HEVC)

Аудіо # 1:
мова: українська
переклад: професійний дубльований | студія Postmodern
кодек: 2.0
бітрейт: 192 кб/с
Інформація про дубляж
Ролі дублювали: Олександр Погребняк, Юлія Перенчук, Сергій Солопай, Наталія Денисенко, Андрій Твердак, Олена Узлюк, Андрій Соболєв, Наталія Ярошенко, Борис Георгієвський та інші.

Переклад: Олег Колесніков
Режисер дубляжу: Анна Пащенко
Звукорежисер: Олександр Мостовенко
Аудіо # 2:
мова: англійська
переклад: оригінал
кодек: 5.1
бітрейт: 1509 кб/с

Субтитри 1-2: (форсовані, повні)
мова: українська
тип: програмні (м'які)
формат: *.srt

Субтитри 3:
мова: англійська
тип: програмні (м'які)
формат: *.srt
Info
General
Unique ID : 230925299019853219804372768768018367226 (0xADBA9846C59144879624E020C70842FA)
Complete name : Fantastic Beasts and Where to Find Them (2016) [Ukr, Eng] Remux HDR 2160p [Hurtom].
Format :
Format version : Version 4
File size : 47.9 GiB
Duration : 2 h 12 min
Overall bit rate : 51.6 Mb/s
Movie name : Fantastic Beasts and Where to Find Them (2016) [Ukr, Eng] Remux HDR 2160p
Encoded date : UTC 2019-03-30 18:12:20
Writing application : v32.0.0 ('Astral Progressions') 64-bit
Writing library : libebml v1.3.7 + v1.5.0
Cover : Yes
Attachments : cover

Video
ID : 1
Format : HEVC
Format/Info : High Efficiency Video Coding
Commercial name : HDR10
Format profile : Main [email protected]@High
Codec ID : V_MPEGH/ISO/HEVC
Duration : 2 h 12 min
Bit rate : 49.9 Mb/s
Width : 3 840 pixels
Height : 2 160 pixels
Display aspect ratio : 16:9
Frame rate mode : Constant
Frame rate : 23.976 (24000/1001) FPS
Color space : YUV
Chroma subsampling : 4:2:0 (Type 2)
Bit depth : 10 bits
Bits/(Pixel*Frame) : 0.251
Stream size : 46.3 GiB (97%)
Title : HEVC 3840*2160 HDR10 @ 49.9 Mbps
Writing library : ATEME Titan File 3.7.8 (4.7.8.0)
Language : Multiple languages
Default : Yes
Forced : Yes
Color range : Limited
Color primaries : BT.2020
Transfer characteristics : PQ
Matrix coefficients : BT.2020 non-constant
Mastering display color primaries : Display P3
Mastering display luminance : min: 0.0050 cd/m2, max: 4000 cd/m2
Maximum Content Light Level : 3173 cd/m2
Maximum Frame-Average Light Level : 484 cd/m2

Audio #1
ID : 2
Format : AC-3
Format/Info : Audio Coding 3
Commercial name : Dolby Digital
Codec ID : A_AC3
Duration : 2 h 12 min
Bit rate mode : Constant
Bit rate : 192 kb/s
Channel(s) : 2 channels
Channel layout : L R
Sampling rate : 48.0 kHz
Frame rate : 31.250 FPS (1536 SPF)
Bit depth : 16 bits
Compression mode : Lossy
Stream size : 182 MiB (0%)
Title : 2.0 @ 192 Kbps
Language : Ukrainian
Service kind : Complete Main
Default : Yes
Forced : Yes

Audio #2
ID : 3
Format :
Format/Info : Digital Theater Systems
Codec ID : A_DTS
Duration : 2 h 12 min
Bit rate mode : Constant
Bit rate : 1 509 kb/s
Channel(s) : 6 channels
Channel layout : C L R Ls Rs LFE
Sampling rate : 48.0 kHz
Frame rate : 93.750 FPS (512 SPF)
Bit depth : 24 bits
Compression mode : Lossy
Stream size : 1.40 GiB (3%)
Title : 5.1 @ 1509 Kbps
Language : English
Default : No
Forced : No

Text #1
ID : 4
Format : UTF-8
Codec ID : S_TEXT/UTF8
Codec ID/Info : UTF-8 Plain Text
Duration : 2 h 2 min
Bit rate : 2 b/s
Count of elements : 40
Stream size : 2.31 KiB (0%)
Title : Forced
Language : Ukrainian
Default : Yes
Forced : Yes

Text #2
ID : 5
Format : UTF-8
Codec ID : S_TEXT/UTF8
Codec ID/Info : UTF-8 Plain Text
Duration : 2 h 7 min
Bit rate : 66 b/s
Count of elements : 1318
Stream size : 62.2 KiB (0%)
Title : Full
Language : Ukrainian
Default : No
Forced : No

Text #3
ID : 6
Format : UTF-8
Codec ID : S_TEXT/UTF8
Codec ID/Info : UTF-8 Plain Text
Duration : 2 h 11 min
Bit rate : 44 b/s
Count of elements : 1599
Stream size : 43.1 KiB (0%)
Title : Full
Language : English
Default : No
Forced : No

Menu
00:00:00.000 : :00:00:00.000
00:08:40.270 : :00:08:40.270
00:18:55.718 : :00:18:55.718
00:28:23.660 : :00:28:23.660
00:38:34.187 : :00:38:34.187
00:48:08.594 : :00:48:08.594
00:58:19.246 : :00:58:19.246
01:09:14.692 : :01:09:14.692
01:17:26.392 : :01:17:26.392
01:29:33.660 : :01:29:33.660
01:38:02.085 : :01:38:02.085
01:50:27.871 : :01:50:27.871
01:59:04.471 : :01:59:04.471
02:04:11.944 : :02:04:11.944
Скріншоти







Джерело:
Особиста оцінка: 8 - мені сподобалося


Золотий реліз (завантажене не впливає на рейтинг)
 Трекер:    Зареєстрований   

Завантажити / скачати фільм українською



відео для новачків



 Зареєстрований:   2019-04-01 13:32
 Розмір:   47.88 GB 
 Оцінка фільму:   10/10 (Голосів: 4)
   
Інші релізи
   Фантастичні звірі і де їх шукати / Fantastic Beasts and Where to Find Them (2016) 1080p H.265 Ukr/Eng | Sub Ukr/Eng igor302  60 / 0   4.88 GB   2018-03-16 23:17 
   Фантастичні звірі і де їх шукати / Fantastic Beasts and Where to Find Them (2016) Ukr 5.1| Sub Uk srtr Bochys  3 / 0   426 MB   2017-11-02 11:56 
   Фантастичні звірі і де їх шукати / Fantastic Beasts and Where to Find Them (2016) DVD9 Eng/Cz/Rus/Ukr | Sub Eng/Cz/Est/Latv/Lith/Port/Rus/Ukr Bochys  5 / 0   6.55 GB   2017-10-30 13:03 
   Фантастичні звірі і де їх шукати / Fantastic Beasts and Where to Find Them (2016) 1080p 3D [Half OverUnder] Ukr/Eng | Sub Eng igor911  6 / 3   13.52 GB   2017-03-24 22:28 
   Фантастичні звірі і де їх шукати / Fantastic Beasts and Where to Find Them (2016) 720p-mini (60 fps) Drool  25 / 0   3.65 GB   2017-03-09 17:13 
   Фантастичні звірі і де їх шукати / Fantastic Beasts and Where to Find Them (2016) Remux 1080p Ukr/Eng | Sub Eng staf777  18 / 4   24.15 GB   2017-03-09 12:45 
   Фантастичні звірі і де їх шукати / Fantastic Beasts and Where to Find Them (2016) 1080p Ukr/Eng | Sub Eng Electroz  18 / 2   14.29 GB   2017-03-08 15:28 
   Фантастичні звірі і де їх шукати / Fantastic Beasts and Where to Find Them (2016) Covenant  51 / 1   1.45 GB   2017-03-08 14:50 
   Фантастичні звірі і де їх шукати / Fantastic Beasts and Where to Find Them (2016) 720p Ukr/Eng | Sub Eng 11FrYkT  28 / 0   5.76 GB   2017-03-08 13:23 
   Фантастичні звірі і де їх шукати / Fantastic Beasts and Where to Find Them (2016) AVC Ukr/Eng | Sub Eng 11FrYkT  40 / 0   2.18 GB   2017-03-08 13:09 
   Фантастичні звірі і де їх шукати / Fantastic Beasts and Where to Find Them (2016) Ukr/Eng Gelios  26 / 0   2.18 GB   2017-03-08 12:44 
Ваш часовий пояс: GMT + 2 Години

Нова тема   Відповісти