Суцільні неприємності / Non c'è due senza quattro (1984) 1080p Ukr/Eng

Нові коментарі

Нова тема   Відповісти
Автор Повідомлення
Anonymous 







2019-04-01 09:45  
Суцільні неприємності / Non c'è due senza quattro (1984) 1080p Ukr/Eng

Суцільні неприємності / Non c'è due senza quattro (1984) 1080p Ukr/Eng


Жанр: бойовик, комедія
Країна: Італія



Кінокомпанія: Trans-Cinema TV
Режисер: Енцо Барбоні
Актори: Теренс Гілл, Бад Спенсер, Ейпріл Клоф, Гарольд Берґман, С.В. Вуд мол., Дарій Реїс, Нелло Паццафіні, Хосе Ван Де Кемп, Фернандо Амарал

Сюжет:
Почесані життям каскадер і саксофоніст знайомляться, коли їх запрошують підмінити на час надбагатих бразильських кузенів, розбещених і випещених родичів, за гонорар в $ 1 млн. Висока плата не випадкова. За кузенами ганяється найнебезпечніша банда. Але наривається вона на їхніх двійників - на рідкість міцних і жвавих хлопців ...


Тривалість: 01:39:44
Якість: 1080p
Відео:
кодек:
розмір кадру: 1920 х 1040
бітрейт: 11,3 Мб/с

Аудіо # 1:
мова: українська
переклад: двоголосий закадровий
кодек: 2.0
бітрейт: 192 кб/с

Аудіо # 2:
мова: англійська
переклад: оригінал
кодек: 2.0
бітрейт: 192 кб/с
Info
General
Unique ID : 62307946699447304411218384346530940407 (0x2EE012F3C5CA385FEEF960862A0785F7)
Complete name : G:\HD Films\Non c'e due senza quattro (1984) 1080p [ukr.eng] Hurtom.
Format :
Format version : Version 4
File size : 8.13 GiB
Duration : 1 h 39 min
Overall bit rate : 11.7 Mb/s
Movie name : Double Trouble_Rip1080_HDReactor.org
Encoded date : UTC 2019-04-01 15:13:09
Writing application : v32.0.0 ('Astral Progressions') 64-bit
Writing library : libebml v1.3.7 + v1.5.0

Video
ID : 1
Format : AVC
Format/Info : Advanced Video Codec
Format profile : [email protected]
Format settings : CABAC / 4 Ref Frames
Format settings, CABAC : Yes
Format settings, ReFrames : 4 frames
Codec ID : V_MPEG4/ISO/AVC
Duration : 1 h 39 min
Bit rate : 11.3 Mb/s
Width : 1 920 pixels
Height : 1 040 pixels
Display aspect ratio : 1.85:1
Frame rate mode : Variable
Frame rate : 23.976 (24000/1001) FPS
Original frame rate : 23.810 FPS
Color space : YUV
Chroma subsampling : 4:2:0
Bit depth : 8 bits
Scan type : Progressive
Bits/(Pixel*Frame) : 0.236
Stream size : 7.86 GiB (97%)
Writing library : core 148 r2762 90a61ec
Encoding settings : cabac=1 / ref=4 / deblock=1:-3:-3 / analyse=0x3:0x113 / me=umh / subme=10 / psy=1 / psy_rd=0.90:0.00 / mixed_ref=1 / me_range=16 / chroma_me=1 / trellis=2 / 8x8dct=1 / cqm=0 / deadzone=21,11 / fast_pskip=0 / chroma_qp_offset=-4 / threads=12 / lookahead_threads=2 / sliced_threads=0 / nr=0 / decimate=0 / interlaced=0 / bluray_compat=0 / stitchable=1 / constrained_intra=0 / bframes=7 / b_pyramid=2 / b_adapt=2 / b_bias=0 / direct=1 / weightb=1 / open_gop=0 / weightp=2 / keyint=240 / keyint_min=23 / scenecut=40 / intra_refresh=0 / rc_lookahead=40 / rc=crf / mbtree=1 / crf=19.0 / qcomp=0.60 / qpmin=0 / qpmax=69 / qpstep=4 / vbv_maxrate=50000 / vbv_bufsize=50000 / crf_max=0.0 / nal_hrd=none / filler=0 / ip_ratio=1.40 / aq=1:1.00
Default : Yes
Forced : No

Audio #1
ID : 2
Format : AC-3
Format/Info : Audio Coding 3
Commercial name : Dolby Digital
Codec ID : A_AC3
Duration : 1 h 39 min
Bit rate mode : Constant
Bit rate : 192 kb/s
Channel(s) : 2 channels
Channel layout : L R
Sampling rate : 48.0 kHz
Frame rate : 31.250 FPS (1536 SPF)
Bit depth : 16 bits
Compression mode : Lossy
Delay relative to video : 6 ms
Stream size : 137 MiB (2%)
Title : KRT channel (DVO)
Language : Ukrainian
Service kind : Complete Main
Default : Yes
Forced : No

Audio #2
ID : 3
Format : AC-3
Format/Info : Audio Coding 3
Commercial name : Dolby Digital
Codec ID : A_AC3
Duration : 1 h 39 min
Bit rate mode : Constant
Bit rate : 192 kb/s
Channel(s) : 2 channels
Channel layout : L R
Sampling rate : 48.0 kHz
Frame rate : 31.250 FPS (1536 SPF)
Bit depth : 16 bits
Compression mode : Lossy
Stream size : 137 MiB (2%)
Language : English
Service kind : Complete Main
Default : No
Forced : No
Скріншоти












Джерело: &


Срібний реліз (на рейтинг впливає 50% завантаженого)
 Трекер:    Зареєстрований   

Завантажити / скачати фільм українською



відео для новачків



 Зареєстрований:   2019-04-01 17:28
 Розмір:   8.13 GB 
 Оцінка фільму:   10/10 (Голосів: 1)
   
Інші релізи
11FrYkT 
Модератор відео


З нами з: 20.02.11
Востаннє: 20.11.19
Повідомлень: 6345

2019-04-01 11:44  
bodia87 написано:

Аудіо # 3:
мова: італійська
переклад: професійний дубльований
кодек: 2.0
бітрейт: 192 кб/с

згідно правил заборонено, заберіть і перемуксуйте

Ваш часовий пояс: GMT + 2 Години

Нова тема   Відповісти