Формула 1. Сезон 2019. Етап 2. Гран-Прі Бахрейну. Гонка (31.03.2019) 720p 60fps Ukr/Eng

Нові коментарі

Нова тема   Відповісти
Автор Повідомлення
sergiyko.5 
VIP


З нами з: 25.02.16
Востаннє: 25.10.20
Повідомлень: 3615

2019-04-01 07:55  
Формула 1. Сезон 2019. Етап 2. Гран-Прі Бахрейну. Гонка (31.03.2019) 720p 60fps Ukr/Eng

Формула 1. Сезон 2019. Етап 2. Гран-Прі Бахрейну. Гонка (31.03.2019) 720p 60fps Ukr/Eng

Жанр: Перегони Формули 1
Країна: Бахрейн
Телеканал: SkySports F1HD
Коментатор: Максим Подзігун

Опис:
Гонка другого етапу Гран-Прі Бахрейну 2019 року.


Якість:

Відео:кодек: розмір кадру: 1280 х 720 бітрейт: 6000 кб/с
Аудіо # 1: мова: українська кодек: MP2 2.0 бітрейт: 192 кб/с
Аудіо # 2: мова: англійська кодек: 2.0 бітрейт: 68 кб/с

Примітка: якість української доріжки жахлива (до 27 хвилини і з 90), щоб зберегти собі нерви, вмикайте англійський коментар.
Тривалість:
01:57:24
Про файл:
General
Unique ID : 331995776888034787854190048962082888946 (0xF9C40F915DFEEC81B2B69D961A59DCF2)
Complete name : G:\Torrents2\SPORT\Formula 1\F1.2019.Race\F1.2019.02.Bahrain.Race.720p..Ukr.Eng.
Format :
Format version : Version 4
File size : 5.12 GiB
Duration : 1 h 57 min
Overall bit rate : 6 248 kb/s
Encoded date : UTC 2019-04-01 05:46:30
Writing application : v32.0.0 ('Astral Progressions') 64-bit
Writing library : libebml v1.3.7 + v1.5.0

Video
ID : 1
Format : AVC
Format/Info : Advanced Video Codec
Format profile : [email protected]
Format settings : CABAC / 2 Ref Frames
Format settings, CABAC : Yes
Format settings, ReFrames : 2 frames
Codec ID : V_MPEG4/ISO/AVC
Duration : 1 h 57 min
Bit rate : 6 000 kb/s
Width : 1 280 pixels
Height : 720 pixels
Display aspect ratio : 16:9
Frame rate mode : Constant
Frame rate : 59.940 (59940/1000) FPS
Color space : YUV
Chroma subsampling : 4:2:0
Bit depth : 8 bits
Scan type : Progressive
Bits/(Pixel*Frame) : 0.109
Stream size : 4.91 GiB (96%)
Writing library : core 148 r2579M 73ae2d1
Encoding settings : cabac=1 / ref=2 / deblock=1:0:0 / analyse=0x3:0x113 / me=hex / subme=2 / psy=1 / psy_rd=1.00:0.00 / mixed_ref=0 / me_range=16 / chroma_me=1 / trellis=0 / 8x8dct=1 / cqm=0 / deadzone=21,11 / fast_pskip=1 / chroma_qp_offset=0 / threads=4 / lookahead_threads=1 / sliced_threads=0 / nr=250 / decimate=1 / interlaced=0 / bluray_compat=0 / stitchable=1 / constrained_intra=0 / bframes=0 / weightp=1 / keyint=122 / keyint_min=12 / scenecut=40 / intra_refresh=0 / rc_lookahead=10 / rc=2pass / mbtree=1 / bitrate=6000 / ratetol=1.0 / qcomp=0.60 / qpmin=5 / qpmax=69 / qpstep=4 / cplxblur=20.0 / qblur=0.5 / ip_ratio=1.40 / aq=1:1.00
Language : English
Default : Yes
Forced : No

Audio #1
ID : 2
Format : MPEG Audio
Format version : Version 1
Format profile : Layer 2
Codec ID : A_MPEG/L2
Codec ID/Hint : MP2
Duration : 1 h 57 min
Bit rate mode : Constant
Bit rate : 192 kb/s
Channel(s) : 2 channels
Sampling rate : 48.0 kHz
Frame rate : 41.667 FPS (1152 SPF)
Compression mode : Lossy
Delay relative to video : -13 ms
Stream size : 161 MiB (3%)
Language : Ukrainian
Default : Yes
Forced : No

Audio #2
ID : 3
Format : LC SBR
Format/Info : Advanced Audio Codec Low Complexity with Spectral Band Replication
Commercial name : HE-
Format settings : Implicit
Codec ID : A_AAC-2
Duration : 1 h 57 min
Bit rate : 62.7 kb/s
Channel(s) : 2 channels
Channel layout : L R
Sampling rate : 48.0 kHz
Frame rate : 23.438 FPS (2048 SPF)
Compression mode : Lossy
Delay relative to video : -13 ms
Stream size : 52.6 MiB (1%)
Language : English
Default : No
Forced : No
Скріншоти:



Зведення: sergiyko


 Трекер:    Зареєстрований   

Завантажити / скачати торрент



відео для новачків



 Зареєстрований:   2019-04-01 07:55
 Розмір:   5.12 GB 
 Оцінка:   9.6/10 (Голосів: 27)
   
romakhar 
Новенький


З нами з: 17.09.17
Востаннє: 17.08.20
Повідомлень: 2

2019-04-01 09:14  
Коментарі зникли. Тут їх було з десяток...

Англійська аудіо доріжка ніяка - просто гонка без коментарів. Розуміємо, що це ніяк не провина автора.
Винен. З 12-ї хвилини є англійські коментарі.

sergiyko.5 
VIP


З нами з: 25.02.16
Востаннє: 25.10.20
Повідомлень: 3615

2019-04-01 10:06  
romakhar
1. Англійська доріжка має коментар.
2. Українська має розсинхрон з якогось кола по 15, за такої якості звуку важко щось зробити.

armogun 
Попереджень: 1
Попереджень: 1 


З нами з: 04.05.13
Востаннє: 23.10.20
Повідомлень: 700

2019-04-01 10:36  
що з українською доріжкою? вона якась зіпсована

[color=orange][size=9]Додано через 1 хвилину 49 секунд:[/size][/color]

[b]sergiyko.5[/b]
перевірте доріжку будьласка

sergiyko.5 
VIP


З нами з: 25.02.16
Востаннє: 25.10.20
Повідомлень: 3615

2019-04-01 10:58  
armogun
Читай опис, спеціально для вас виділив червоним.

gunterZhlob 
Поважний учасник


З нами з: 15.12.08
Востаннє: 24.10.20
Повідомлень: 219

2019-04-01 11:49  
Під час трансляції були шалені проблеми зі звуком. Ф1юа довго чаклували, але все зробити не вдалося.
Що потрапило в цю роздачу ще не знаю, але думаю причина саме в цьому

makcim 
Новенький


З нами з: 13.02.09
Востаннє: 27.12.19
Повідомлень: 19

2019-04-01 20:13  
gunterZhlob написано:
Під час трансляції були шалені проблеми зі звуком. Ф1юа довго чаклували, але все зробити не вдалося.

маю надію що наступного разу все буде ок.

Farazoon 
Частий відвідувач


З нами з: 12.04.12
Востаннє: 18.10.20
Повідомлень: 27

2019-04-01 21:39  
Дякую за реліз, при такій якості на місці Макса я би посоромився просити донати.
Геша75 
Новенький


З нами з: 28.04.18
Востаннє: 06.06.19
Повідомлень: 3

2019-04-05 01:13  
А шо со звуком?
antik_2008 
Релізер і модератор відео


З нами з: 20.10.08
Востаннє: 25.10.20
Повідомлень: 4204

2019-04-05 09:52  
sergiyko.5 написано:
Примітка: якість української доріжки жахлива (до 27 хвилини і з 90), щоб зберегти собі нерви, вмикайте англійський коментар.

Ваш часовий пояс: GMT + 2 Години

Нова тема   Відповісти