Повсталий з пекла / Hellraiser [Arrow Films Remastered] (1987) Remux 1080p Ukr/Eng | Sub Ukr/Eng

Нові коментарі

Нова тема   Відповісти
Автор Повідомлення
MakRA 
VIP


З нами з: 11.11.18
Востаннє: 09.08.20
Повідомлень: 1091

2019-04-01 01:05  
Повсталий з пекла / Hellraiser [Arrow Films Remastered] (1987) Remux 1080p Ukr/Eng | Sub Ukr/Eng


Альтернативні обкладинки:

Повсталий з пекла / Hellraiser [Arrow Films Remastered] (1987) Remux 1080p Ukr/Eng | Sub Ukr/Eng
Жанр: жахи, трилер
Країна: Велика Британія



Кінокомпанія: Cinemarque Entertainment BV, Film Futures, Rivdel Films
Режисер: Клайв Баркер [Clive Barker]
Актори: Ендрю Робінсон [Andrew Robinson], Клер Хіггінс [Clare Higgins], Ешлі Лоуренс [Ashley Laurence], Шон Чепман [Sean Chapman], Олівер Сміт [Oliver Smith], Роберт Хайнс [Robert Hines], Ентоні Аллен [Anthony Allen], Леон Девіс [Leon Davis], Майкл Кессіді [Michael Cassidy], Френк Бейкер [Frank Baker], Кеннет Нельсон [Kenneth Nelson], Гей Бейнес [Gay Baynes] Ніалл Баггі [Niall Buggy], Дейв Аткінс [Dave Atkins], Олівер Паркер [Oliver Parker], Памела Шолто [Pamela Sholto], Даг Бредлі [Doug Bradley], Ніколас Вінс [Nicholas Vince], Саймон Бемфорд [Simon Bamford], Грейс Кірбі [Grace Kirby], Шерон Бауер [Sharon Bower], Рауль Ньюні [Raul Newney].

Сюжет:
Розставивши навколо себе запалені свічки, Френк відкриває придбану ним на східному базарі стародавню скриньку. Легенда свідчить, що в ній живуть демони, які можуть подарувати власникові невимовні насолоди. Але Френк не міг і припустити, що ця скринька - це ключ від воріт до пекла...

Цікаве про фільм:

-За мотивами фільму були випущені кілька коміксів, випускалися пластикові моделі сенобітів.
-Головоломка, за допомогою якої герої фільму потрапляють до пекла, відома як "скринька Лемаршана" або "конфігурація Плачу" ("Lament configuration").
-Дагу Бредлі перед зйомками було запропоновано на вибір дві епізодичні ролі — переносника меблів або «гвоздеголового» сенобіта. Початківець актор порахував, що важливіше, звичайно, для молодого актора, щоб його обличчя з'явилося на екрані, але все-таки вибрав роль сенобіта. І не прогадав.
-Перша назва картини була "Садомазохісти з потойбічного світу" (Sadomasochists From Beyond The Grave).
-Виконавця ролі сенобіта Дага Бредлі перед появою на знімальному майданчику протягом шести годин гримували, закріплюючи на його голові сотні цвяшків.
-Спочатку роль Ларрі Коттона була запропонована Ленсу Хенріксену, але той відмовився.
-Для письменника Клайва Баркера це був режисерський дебют. Його книга "The Hellbound Heart", за якою поставлено фільм, складається всього з 60 сторінок.
Френка Коттона в його людській подобі і Френка-"повсталого" грають різні актори.
-Даг Бредлі - друг і однокласник Клайва Баркера.
-Слід зауважити, що в літературному першоджерелі ніякого Пінхеда не було й близько, а його функції виконувала істота, звана "Інженером", - дивний суб'єкт з тілом людини і згустком світла замість голови. Проте на самому початку оповідання зустрічається опис декількох сенобітов, і один з них - дівчина - виглядає наступним чином: "Кожен дюйм голови був татуйований надскладним візерунком, на кожному перетині горизонтальних і вертикальних ліній виблискувала шпилька з дорогоцінним каменем, які наскрізь проколювали кістку".
-Пекло в фільмі являє собою мережу коридорів і лабіринтів.
-Сенобіо - це церковний термін, позначає жителя чернечої комуни. Це слово грецького походження. Баркер описує сенобітів як "теологів Ордена Ран або Розрізів". Сенобіти можуть проникати в нашу реальність тільки через особливий просторово-часовий пролом - "схизму" - який можна відкрити і закрити за допомогою особливих пристосувань. Таким пристосуванням для створення "пролому" є Скринька-Головоломка (Puzzle Box), вперше зроблена таким собі творцем іграшок Філіпом Лемаршаном в 1784 за замовленням і кресленням Дюка де Ліля (аристократа, практикуючого темну магію).
-Спочатку саундтрек до фільму записувала відома англійська індустріальна команда Coil, але незважаючи на протести Клайва Баркера, давнього знайомого групи, продюсери з New Line Cinema не прийняли їх композиції з власних причин.
-Прообраз Скриньки Лемаршана - головоломка, яку маленькому Клайву подарував дідусь.
Існують дві версії фільму - повна і скорочена. У ній були підрізані і скорочені особливо криваві сцени.



Тривалість: 01:33:21
Якість: Remux 1080p [Arrow Films Remastered] - порівняння з попереднім виданням від Anchor Bay Entertainment
Відео:
кодек:
розмір кадру: 1920 х 1080
бітрейт: 35 Мб/с

Аудіо # 1:
мова: українська
переклад: багатоголосий закадровий | Студія "Антигламур"
кодек: 2.0
бітрейт: 192 кб/с
Над перекладом працювали:

Переклад: субтитри з ліцензійного DVD (Євген Макаревич), редагування w2958l
Озвучка: Василь Ніжний, Максим Омельченко, Василь Ніжний-старший, Людмила Швець
Зведення: Максим Омельченко.
Аудіо # 2:
мова: англійська
переклад: оригінал
кодек: -HD MA 5.1
бітрейт: 3762 кб/с

Аудіо # 3:
мова: англійська
переклад: оригінал
кодек: 5.1
бітрейт: 640 кб/с

Аудіо # 4:
мова: англійська
переклад: коментарі режисера Клайва Баркера та актриси Ешлі Лоренс
кодек: 2.0
бітрейт: 192 кб/с

Субтитри # 1: (Full)
мова: українська
тип: програмні (м'які)
формат: *.srt
переклад: з ліцензійного DVD (Євген Макаревич), редагування w2958l

Субтитри #2-3: (Full) | (SDH)
мова: англійська
тип: програмні (м'які)
формат: *.srt

Збережено оригінальні розділи, як на Blu-ray.
Info
General
Unique ID : 124929919939685645807711152747584007403 (0x5DFCA09BB995E0F4A4907FBB0F25ACEB)
Complete name : I:\Hellraiser Movie Collection\Hellraiser [Arrow Films Remastered] (1987) Remux 1080p UkrEng Sub UkrEng [Hurtom].
Format :
Format version : Version 4
File size : 25.8 GiB
Duration : 1 h 33 min
Overall bit rate mode : Variable
Overall bit rate : 39.6 Mb/s
Movie name : Повсталий з пекла / Hellraiser [Arrow Films Remastered] (1987) Remux 1080p Ukr/Eng | Sub Ukr/Eng [Hurtom]
Encoded date : UTC 2020-02-05 06:53:58
Writing application : v25.0.0 ('Prog Noir') 64-bit
Writing library : libebml v1.3.6 + v1.4.9
Cover : Yes
Attachments : cover.jpg

Video
ID : 1
Format : AVC
Format/Info : Advanced Video Codec
Format profile : [email protected]
Format settings : CABAC / 3 Ref Frames
Format settings, CABAC : Yes
Format settings, Reference fra : 3 frames
Codec ID : V_MPEG4/ISO/AVC
Duration : 1 h 33 min
Bit rate mode : Variable
Bit rate : 35.0 Mb/s
Maximum bit rate : 36.0 Mb/s
Width : 1 920 pixels
Height : 1 080 pixels
Display aspect ratio : 16:9
Frame rate mode : Constant
Frame rate : 23.976 (24000/1001) FPS
Color space : YUV
Chroma subsampling : 4:2:0
Bit depth : 8 bits
Scan type : Progressive
Bits/(Pixel*Frame) : 0.704
Stream size : 22.7 GiB (88%)
Title : Hellraiser [Arrow Films Remastered] (1987) Remux 1080p Ukr/Eng | Sub Ukr/Eng [Hurtom]
Writing library : core 128 r2216 198a7ea
Encoding settings : cabac=1 / ref=4 / deblock=0:-1:-1 / analyse=0x3:0x133 / me=umh / subme=10 / psy=1 / psy_rd=1.00:0.15 / mixed_ref=1 / me_range=24 / chroma_me=1 / trellis=2 / 8x8dct=1 / cqm=0 / deadzone=21,11 / fast_pskip=1 / chroma_qp_offset=-3 / threads=12 / lookahead_threads=2 / sliced_threads=0 / slices=4 / nr=0 / decimate=1 / interlaced=0 / bluray_compat=1 / constrained_intra=0 / bframes=3 / b_pyramid=1 / b_adapt=2 / b_bias=0 / direct=3 / weightb=1 / open_gop=1 / weightp=1 / keyint=24 / keyint_min=1 / scenecut=40 / intra_refresh=0 / rc_lookahead=24 / rc=2pass / mbtree=0 / bitrate=35000 / ratetol=1.0 / qcomp=0.00 / qpmin=0 / qpmax=69 / qpstep=4 / cplxblur=20.0 / qblur=0.5 / vbv_maxrate=36000 / vbv_bufsize=30000 / nal_hrd=vbr / ip_ratio=1.40 / pb_ratio=1.30 / aq=1:0.30
Default : Yes
Forced : No
Color range : Limited
Color primaries : BT.709
Transfer characteristics : BT.709
Matrix coefficients : BT.709

Audio #1
ID : 2
Format : AC-3
Format/Info : Audio Coding 3
Commercial name : Dolby Digital
Codec ID : A_AC3
Duration : 1 h 33 min
Bit rate mode : Constant
Bit rate : 192 kb/s
Channel(s) : 2 channels
Channel layout : L R
Sampling rate : 48.0 kHz
Frame rate : 31.250 FPS (1536 SPF)
Bit depth : 16 bits
Compression mode : Lossy
Delay relative to video : 4 ms
Stream size : 128 MiB (0%)
Title : MVO [Студія "Антигламур"] 2.0
Language : Ukrainian
Service kind : Complete Main
Default : Yes
Forced : Yes

Audio #2
ID : 3
Format : XLL
Format/Info : Digital Theater Systems
Commercial name : -HD Master Audio
Codec ID : A_DTS
Duration : 1 h 33 min
Bit rate mode : Variable
Bit rate : 3 762 kb/s
Channel(s) : 6 channels
Channel layout : C L R Ls Rs LFE
Sampling rate : 48.0 kHz
Frame rate : 93.750 FPS (512 SPF)
Bit depth : 24 bits
Compression mode : Lossless
Stream size : 2.45 GiB (10%)
Title : Original -HD MA 5.1
Language : English
Default : No
Forced : No

Audio #3
ID : 4
Format : AC-3
Format/Info : Audio Coding 3
Commercial name : Dolby Digital
Codec ID : A_AC3
Duration : 1 h 33 min
Bit rate mode : Constant
Bit rate : 640 kb/s
Channel(s) : 6 channels
Channel layout : L R C LFE Ls Rs
Sampling rate : 48.0 kHz
Frame rate : 31.250 FPS (1536 SPF)
Bit depth : 16 bits
Compression mode : Lossy
Delay relative to video : 4 ms
Stream size : 427 MiB (2%)
Title : Original 5.1
Language : English
Service kind : Complete Main
Default : No
Forced : No

Audio #4
ID : 5
Format : AC-3
Format/Info : Audio Coding 3
Commercial name : Dolby Digital
Codec ID : A_AC3
Duration : 1 h 33 min
Bit rate mode : Constant
Bit rate : 192 kb/s
Channel(s) : 2 channels
Channel layout : L R
Sampling rate : 48.0 kHz
Frame rate : 31.250 FPS (1536 SPF)
Bit depth : 16 bits
Compression mode : Lossy
Delay relative to video : 4 ms
Stream size : 128 MiB (0%)
Title : Commentary with writer-director Clive Barker and actress Ashley Laurence
Language : English
Service kind : Complete Main
Default : No
Forced : No

Text #1
ID : 6
Format : UTF-8
Codec ID : S_TEXT/UTF8
Codec ID/Info : UTF-8 Plain Text
Duration : 1 h 28 min
Bit rate : 41 b/s
Count of elements : 666
Stream size : 26.9 KiB (0%)
Title : Ukr (Full)
Language : Ukrainian
Default : No
Forced : No

Text #2
ID : 7
Format : UTF-8
Codec ID : S_TEXT/UTF8
Codec ID/Info : UTF-8 Plain Text
Duration : 1 h 28 min
Bit rate : 25 b/s
Count of elements : 684
Stream size : 16.7 KiB (0%)
Title : Eng (Full)
Language : English
Default : No
Forced : No

Text #3
ID : 8
Format : UTF-8
Codec ID : S_TEXT/UTF8
Codec ID/Info : UTF-8 Plain Text
Duration : 1 h 29 min
Bit rate : 30 b/s
Count of elements : 754
Stream size : 19.8 KiB (0%)
Title : Eng (SDH)
Language : English
Default : No
Forced : No

Menu
00:00:00.000 : en:00:00:00.000
00:05:25.992 : en:00:05:25.992
00:14:02.508 : en:00:14:02.508
00:24:28.175 : en:00:24:28.175
00:31:59.876 : en:00:31:59.876
00:38:38.816 : en:00:38:38.816
00:48:25.069 : en:00:48:25.069
00:56:19.668 : en:00:56:19.668
01:04:05.258 : en:01:04:05.258
01:09:59.570 : en:01:09:59.570
01:17:19.635 : en:01:17:19.635
01:28:01.401 : en:01:28:01.401
Скріншоти
Джерело: &
Особиста оцінка: 10 - без зайвих вагань рекомендую всім!




Золотий реліз (завантажене не впливає на рейтинг)
 Трекер:    Зареєстрований   

Завантажити / скачати фільм українською



відео для новачків



 Зареєстрований:   2020-02-05 11:30
 Розмір:   25.81 GB 
 Оцінка фільму:   8.6/10 (Голосів: 13)
   
Інші релізи
hetzendorf 
Попереджень: 2
Попереджень: 2 


З нами з: 23.07.15
Востаннє: 09.08.20
Повідомлень: 2844

2019-05-20 23:18  
Надзвичайно нудне, як же ж усі персонажі туплять >_<
Повсталий з дупи!
2/10

MakRA 
VIP


З нами з: 11.11.18
Востаннє: 09.08.20
Повідомлень: 1091

2020-02-05 11:32  
Реліз оновлено 05.02.2020
Відео з нового видання від Arrow Films + додано оригінальну доріжку -HD MA 5.1 і SDH субтитри

clavaykraini 
Свій


З нами з: 16.05.14
Востаннє: 08.08.20
Повідомлень: 76

2020-04-24 20:05  
MakRA написано:
Відео з нового видання від Arrow

Шановний автор, зробіть, будь ласка, уточнення. Чи є це, насправді, Arrow Films Remastered 2017? Бо там зовсім інша обкладинка диску, а вказана вами відноситься до Hellraiser Blu-ray 2019.
Можна подивитись тут https://www.blu-ray.com/movies/Hellraiser-Blu-ray/166610/

Ваш часовий пояс: GMT + 2 Години

Нова тема   Відповісти