Повсталий з пекла / Hellraiser (1987) Remux 1080p Ukr/Eng | Sub Ukr/Eng

Нові коментарі

Нова тема   Відповісти
Останній раз роздавалося MakRA (2019-10-20)
Автор Повідомлення
MakRA 
VIP


З нами з: 11.11.18
Востаннє: 20.10.19
Повідомлень: 437

2019-04-01 01:05  
Повсталий з пекла / Hellraiser (1987) Remux 1080p Ukr/Eng | Sub Ukr/Eng

Повсталий з пекла / Hellraiser (1987) Remux 1080p Ukr/Eng | Sub Ukr/Eng


Жанр: жахи, трилер
Країна: Велика Британія



Кінокомпанія: Cinemarque Entertainment BV, Film Futures, Rivdel Films
Режисер: Клайв Баркер [Clive Barker]
Актори: Ендрю Робінсон [Andrew Robinson], Клер Хіггінс [Clare Higgins], Ешлі Лоуренс [Ashley Laurence], Шон Чепман [Sean Chapman], Олівер Сміт [Oliver Smith], Роберт Хайнс [Robert Hines], Ентоні Аллен [Anthony Allen], Леон Девіс [Leon Davis], Майкл Кессіді [Michael Cassidy], Френк Бейкер [Frank Baker], Кеннет Нельсон [Kenneth Nelson], Гей Бейнес [Gay Baynes] Ніалл Баггі [Niall Buggy], Дейв Аткінс [Dave Atkins], Олівер Паркер [Oliver Parker], Памела Шолто [Pamela Sholto], Даг Бредлі [Doug Bradley], Ніколас Вінс [Nicholas Vince], Саймон Бемфорд [Simon Bamford], Грейс Кірбі [Grace Kirby], Шерон Бауер [Sharon Bower], Рауль Ньюні [Raul Newney].

Сюжет:
Розставивши навколо себе запалені свічки, Френк відкриває придбану ним на східному базарі стародавню скриньку. Легенда свідчить, що в ній живуть демони, які можуть подарувати власникові невимовні насолоди. Але Френк не міг і припустити, що ця скринька - це ключ від воріт до пекла...

Цікаве про фільм:

-За мотивами фільму були випущені кілька коміксів, випускалися пластикові моделі сенобітів.
-Головоломка, за допомогою якої герої фільму потрапляють до пекла, відома як "скринька Лемаршана" або "конфігурація Плачу" ("Lament configuration").
-Дагу Бредлі перед зйомками було запропоновано на вибір дві епізодичні ролі — переносника меблів або «гвоздеголового» сенобіта. Початківець актор порахував, що важливіше, звичайно, для молодого актора, щоб його обличчя з'явилося на екрані, але все-таки вибрав роль сенобіта. І не прогадав.
-Перша назва картини була "Садомазохісти з потойбічного світу" (Sadomasochists From Beyond The Grave).
-Виконавця ролі сенобіта Дага Бредлі перед появою на знімальному майданчику протягом шести годин гримували, закріплюючи на його голові сотні цвяшків.
-Спочатку роль Ларрі Коттона була запропонована Ленсу Хенріксену, але той відмовився.
-Для письменника Клайва Баркера це був режисерський дебют. Його книга "The Hellbound Heart", за якою поставлено фільм, складається всього з 60 сторінок.
Френка Коттона в його людській подобі і Френка-"повсталого" грають різні актори.
-Даг Бредлі - друг і однокласник Клайва Баркера.
-Слід зауважити, що в літературному першоджерелі ніякого Пінхеда не було й близько, а його функції виконувала істота, звана "Інженером", - дивний суб'єкт з тілом людини і згустком світла замість голови. Проте на самому початку оповідання зустрічається опис декількох сенобітов, і один з них - дівчина - виглядає наступним чином: "Кожен дюйм голови був татуйований надскладним візерунком, на кожному перетині горизонтальних і вертикальних ліній виблискувала шпилька з дорогоцінним каменем, які наскрізь проколювали кістку".
-Пекло в фільмі являє собою мережу коридорів і лабіринтів.
-Сенобіо - це церковний термін, позначає жителя чернечої комуни. Це слово грецького походження. Баркер описує сенобітів як "теологів Ордена Ран або Розрізів". Сенобіти можуть проникати в нашу реальність тільки через особливий просторово-часовий пролом - "схизму" - який можна відкрити і закрити за допомогою особливих пристосувань. Таким пристосуванням для створення "пролому" є Скринька-Головоломка (Puzzle Box), вперше зроблена таким собі творцем іграшок Філіпом Лемаршаном в 1784 за замовленням і кресленням Дюка де Ліля (аристократа, практикуючого темну магію).
-Спочатку саундтрек до фільму записувала відома англійська індустріальна команда Coil, але незважаючи на протести Клайва Баркера, давнього знайомого групи, продюсери з New Line Cinema не прийняли їх композиції з власних причин.
-Прообраз Скриньки Лемаршана - головоломка, яку маленькому Клайву подарував дідусь.
Існують дві версії фільму - повна і скорочена. У ній були підрізані і скорочені особливо криваві сцени.




Тривалість: 01:33:22
Якість: Remux 1080p
Відео:
кодек:
розмір кадру: 1920 х 1080
бітрейт: 28 Мб/с

Аудіо # 1:
мова: українська
переклад: багатоголосий закадровий | Студія "Антигламур"
кодек: 2.0
бітрейт: 192 кб/с
Над перекладом працювали:

Переклад: з ліцензійного DVD (Євген Макаревич), редагування w2958l
Озвучка: Василь Ніжний, Максим Омельченко, Василь Ніжний-старший, Людмила Швець
Зведення: Максим Омельченко.
Аудіо # 2:
мова: англійська
переклад: оригінал
кодек: -HD MA 5.1
бітрейт: 1509 кб/с

Аудіо # 3:
мова: англійська
переклад: оригінал
кодек: 5.1
бітрейт: 640 кб/с

Аудіо # 4:
мова: англійська
переклад: оригінал | коментарі
кодек: 2.0
бітрейт: 192 кб/с

Субтитри:
мова: українська
тип: програмні (м'які)
формат: *.srt

Субтитри:
мова: англійська
тип: програмні (м'які)
формат: *.srt

Збережено оригінальні розділи, як на Blu-ray.
Info
General
Unique ID : 41519245130315758755823424061691952337 (0x1F3C50D4C2F1E692D0ABC2E24D547CD1)
Complete name : F:\Жахи, психологічні\Hellraiser. Collection\Hellraiser (1987) Remux 1080p UkrEng Sub UkrEng [Hurtom].
Format :
Format version : Version 4 / Version 2
File size : 19.9 GiB
Duration : 1 h 33 min
Overall bit rate mode : Variable
Overall bit rate : 30.5 Mb/s
Movie name : Повсталий з пекла / Hellraiser (1987) Remux 1080p Ukr/Eng | Sub Ukr/Eng [Hurtom]
Encoded date : UTC 2019-03-31 19:44:54
Writing application : v25.0.0 ('Prog Noir') 64-bit
Writing library : libebml v1.3.6 + v1.4.9
Cover : Yes
Attachments : cover.jpg / xlog.txt

Video
ID : 1
Format : AVC
Format/Info : Advanced Video Codec
Format profile : [email protected]
Format settings, CABAC : Yes
Format settings, RefFrames : 2 frames
Format settings, GOP : M=1, N=10
Codec ID : V_MPEG4/ISO/AVC
Duration : 1 h 33 min
Bit rate mode : Variable
Bit rate : 28.0 Mb/s
Width : 1 920 pixels
Height : 1 080 pixels
Display aspect ratio : 16:9
Frame rate mode : Constant
Frame rate : 23.976 (24000/1001) FPS
Color space : YUV
Chroma subsampling : 4:2:0
Bit depth : 8 bits
Scan type : Progressive
Bits/(Pixel*Frame) : 0.562
Stream size : 18.2 GiB (92%)
Title : Hellraiser (1987) Remux 1080p Ukr/Eng | Sub Ukr/Eng [Hurtom]
Language : Ukrainian
Default : Yes
Forced : Yes

Audio #1
ID : 2
Format : AC-3
Format/Info : Audio Coding 3
Format settings, Endianness : Big
Codec ID : A_AC3
Duration : 1 h 33 min
Bit rate mode : Constant
Bit rate : 192 kb/s
Channel(s) : 2 channels
Channel positions : Front: L R
Sampling rate : 48.0 kHz
Frame rate : 31.250 FPS (1536 SPF)
Bit depth : 16 bits
Compression mode : Lossy
Stream size : 128 MiB (1%)
Title : MVO [Студія "Антигламур"]
Language : Ukrainian
Service kind : Complete Main
Default : Yes
Forced : Yes

Audio #2
ID : 3
Format :
Format/Info : Digital Theater Systems
Mode : 16
Format settings, Endianness : Big
Codec ID : A_DTS
Duration : 1 h 33 min
Bit rate mode : Constant
Bit rate : 1 509 kb/s
Channel(s) : 6 channels
Channel positions : Front: L C R, Side: L R, LFE
Sampling rate : 48.0 kHz
Frame rate : 93.750 FPS (512 SPF)
Bit depth : 16 bits
Compression mode : Lossy
Stream size : 1 008 MiB (5%)
Title : English
Language : English
Default : No
Forced : No

Audio #3
ID : 4
Format : AC-3
Format/Info : Audio Coding 3
Format settings, Endianness : Big
Codec ID : A_AC3
Duration : 1 h 33 min
Bit rate mode : Constant
Bit rate : 640 kb/s
Channel(s) : 6 channels
Channel positions : Front: L C R, Side: L R, LFE
Sampling rate : 48.0 kHz
Frame rate : 31.250 FPS (1536 SPF)
Bit depth : 16 bits
Compression mode : Lossy
Stream size : 427 MiB (2%)
Title : English
Language : English
Service kind : Complete Main
Default : No
Forced : No

Audio #4
ID : 5
Format : AC-3
Format/Info : Audio Coding 3
Format settings, Endianness : Big
Codec ID : A_AC3
Duration : 1 h 33 min
Bit rate mode : Constant
Bit rate : 192 kb/s
Channel(s) : 2 channels
Channel positions : Front: L R
Sampling rate : 48.0 kHz
Frame rate : 31.250 FPS (1536 SPF)
Bit depth : 16 bits
Compression mode : Lossy
Stream size : 128 MiB (1%)
Title : English (Commentary)
Language : English
Service kind : Complete Main
Default : No
Forced : No

Text #1
ID : 6
Format : UTF-8
Codec ID : S_TEXT/UTF8
Codec ID/Info : UTF-8 Plain Text
Duration : 1 h 28 min
Bit rate : 41 b/s
Count of elements : 666
Stream size : 26.9 KiB (0%)
Title : Ukr
Language : Ukrainian
Default : No
Forced : No

Text #2
ID : 7
Format : UTF-8
Codec ID : S_TEXT/UTF8
Codec ID/Info : UTF-8 Plain Text
Duration : 1 h 28 min
Bit rate : 25 b/s
Count of elements : 684
Stream size : 16.7 KiB (0%)
Title : Eng
Language : English
Default : No
Forced : No

Menu
00:00:00.000 : en:Chapter 1
00:05:31.663 : en:Chapter 2
00:12:10.730 : en:Chapter 3
00:16:23.730 : en:Chapter 4
00:22:44.778 : en:Chapter 5
00:24:54.114 : en:Chapter 6
00:28:51.229 : en:Chapter 7
00:33:27.880 : en:Chapter 8
00:40:56.077 : en:Chapter 9
00:46:36.460 : en:Chapter 10
00:50:12.050 : en:Chapter 11
00:53:15.733 : en:Chapter 12
00:59:37.988 : en:Chapter 13
01:05:29.215 : en:Chapter 14
01:10:41.944 : en:Chapter 15
01:14:12.154 : en:Chapter 16
01:16:57.029 : en:Chapter 17
01:20:29.407 : en:Chapter 18
01:23:03.853 : en:Chapter 19
01:27:20.944 : en:Chapter 20
Скріншоти
Джерело: &
Особиста оцінка: 10 - без зайвих вагань рекомендую всім!




Золотий реліз (завантажене не впливає на рейтинг)
 Трекер:    Зареєстрований   

Завантажити / скачати фільм українською



відео для новачків



 Зареєстрований:   2019-04-01 01:05
 Розмір:   19.89 GB 
 Оцінка фільму:   8.9/10 (Голосів: 7)
   
Інші релізи
Bariska 
Частий відвідувач


З нами з: 28.02.19
Востаннє: 18.04.19
Повідомлень: 33

2019-04-01 02:16  
AVC
hetzendorf 
Попереджень: 2
Попереджень: 2 


З нами з: 23.07.15
Востаннє: 20.10.19
Повідомлень: 2554

2019-05-20 23:18  
Надзвичайно нудне, як же ж усі персонажі туплять >_<
Повсталий з дупи!
2/10

Ваш часовий пояс: GMT + 2 Години

Нова тема   Відповісти