Занепад цивілізації / Extinction (2018) 720p Ukr/Eng | Sub Eng

Нові коментарі

Нова тема   Відповісти
Автор Повідомлення
Anonymous 







2019-03-31 15:04  
Занепад цивілізації / Extinction (2018) 720p Ukr/Eng | Sub Eng



Жанр: екшн, драма, наукова фантастика
Країна: США



Кінокомпанія: Netflix
Режисер: Бен Янг
Актори: Ліззі Каплан, Майкл Пенья, Ізраель Бруссар, Емма Бут.

Сюжет:
Дія фільму розгортається в майбутньому. Головному герою картини Пітеру постійно сниться один й той самий сон. У ньому Пітер переживає глобальну катастрофу, в результаті якої вся його сім’я гине. Цей кошмар турбує його протягом декількох тижнів, і незабаром страшний сон стає реальністю. На Землю нападають агресивно налаштовані прибульці. Вони прилетіли сюди тільки для того, щоб знищити все людство, і їм дуже швидко вдається відправити цю цивілізацію в кам'яний вік. Пітер повинен врятувати свою сім’ю від неминучої загибелі, проте він абсолютно не уявляє собі, як це можна зробити. Все змінюється після того, як він знаходить в собі практично невичерпне джерело сил …


Тривалість: 01:34:52
Якість:
Відео:
кодек:
розмір кадру: 1280x534
бітрейт: 3102 кб/с

Аудіо # 1:
мова: українська
переклад: багатоголосий закадровий | dzuski
кодек: 2.0
бітрейт: 192 кб/с
Інформація про озвучення:

Переклад: Наталя Плотник
Ролі озвучували: Dmitriy Kravchenko, Lomaev, Trina_D, Дядько Ґрей, Listik
Аудіо # 2:
мова: англійська
переклад: оригінал
кодек: E- 5.1
бітрейт: 640 кб/с

Субтитри:
мова: англійська
тип: програмні (м'які)
формат: *.srt
Info
Video
ID : 1
Format : AVC
Format/Info : Advanced Video Codec
Format profile : [email protected]
Format settings, CABAC : Yes
Format settings, RefFrames : 9 frames
Codec ID : V_MPEG4/ISO/AVC
Duration : 1 h 34 min
Bit rate : 3 174 kb/s
Width : 1 280 pixels
Height : 534 pixels
Display aspect ratio : 2.40:1
Frame rate mode : Constant
Frame rate : 23.976 (24000/1001) FPS
Color space : YUV
Chroma subsampling : 4:2:0
Bit depth : 8 bits
Scan type : Progressive
Bits/(Pixel*Frame) : 0.194
Stream size : 2.10 GiB (79%)
Writing library : core 155 r2901+1 (master: 7d0ff22 / tmod: cd02c8e) [X86_64]
Encoding settings : cabac=1 / ref=9 / deblock=1:-3:-3 / analyse=0x3:0x133 / me=umh / subme=10 / psy=1 / psy_rd=1.05:0.15 / mixed_ref=1 / me_range=48 / chroma_me=1 / trellis=2 / 8x8dct=1 / cqm=0 / deadzone=6,6 / fast_pskip=0 / chroma_qp_offset=-3 / threads=17 / lookahead_threads=2 / sliced_threads=0 / nr=0 / decimate=0 / interlaced=0 / bluray_compat=0 / constrained_intra=0 / bframes=9 / b_pyramid=2 / b_adapt=2 / b_bias=0 / direct=3 / weightb=1 / open_gop=0 / weightp=2 / keyint=250 / keyint_min=23 / scenecut=40 / intra_refresh=0 / rc_lookahead=60 / rc=crf / mbtree=0 / crf=18.0 / qcomp=0.70 / qpmin=0 / qpmax=69 / qpstep=4 / vbv_maxrate=62500 / vbv_bufsize=78125 / crf_max=0.0 / nal_hrd=none / filler=0 / ip_ratio=1.25 / pb_ratio=1.20 / aq=3:0.70
Language : English
Default : Yes
Forced : No

Audio #1
ID : 2
Format : AC-3
Format/Info : Audio Coding 3
Format settings, Endianness : Big
Codec ID : A_AC3
Duration : 1 h 34 min
Bit rate mode : Constant
Bit rate : 192 kb/s
Channel(s) : 2 channels
Channel positions : Front: L R
Sampling rate : 48.0 kHz
Frame rate : 31.250 FPS (1536 SPF)
Bit depth : 16 bits
Compression mode : Lossy
Stream size : 130 MiB (5%)
Title : MVO - Dzuski
Language : Ukrainian
Service kind : Complete Main
Default : Yes
Forced : No

Audio #2
ID : 3
Format : E-AC-3
Format/Info : Enhanced Audio Coding 3
Format settings, Endianness : Big
Codec ID : A_EAC3
Duration : 1 h 34 min
Bit rate mode : Constant
Bit rate : 640 kb/s
Channel(s) : 6 channels
Channel positions : Front: L C R, Side: L R, LFE
Sampling rate : 48.0 kHz
Frame rate : 187.500 FPS (256 SPF)
Compression mode : Lossy
Stream size : 434 MiB (16%)
Language : English
Service kind : Complete Main
Default : No
Forced : No

Text
ID : 4
Format : UTF-8
Codec ID : S_TEXT/UTF8
Codec ID/Info : UTF-8 Plain Text
Duration : 1 h 27 min
Bit rate : 38 b/s
Count of elements : 926
Stream size : 24.6 KiB (0%)
Title : English
Language : English
Default : No
Forced : No
Скріншоти








Джерело: & Dzuski.com
Особиста оцінка: 0 - не дивився


Авторський реліз (завантажувати можна без реєстрації)
 Трекер:    Зареєстрований   

Завантажити / скачати фільм українською



відео для новачків



 Зареєстрований:   2019-03-31 15:04
 Розмір:   2.66 GB 
 Оцінка фільму:   7.5/10 (Голосів: 31)
   
Інші релізи
   Занепад цивілізації / Extinction (2018) antik_2008  85 / 0   1.24 GB   2019-04-02 19:18 
Electroz 
Відео Гуртом - підтримка та поширення
Відео Гуртом - підтримка та поширення


З нами з: 18.09.14
Востаннє: 21.04.19
Повідомлень: 3265

2019-03-31 15:18  
del
Anonymous 







2019-03-31 15:33  
Electroz написано:
За доріжкою до dzuski звертався?

ні, витяг з онлайну. не думаю, що вона в них збереглася.

igor911 
Відео Гуртом
Відео Гуртом


З нами з: 18.01.08
Востаннє: 21.04.19
Повідомлень: 12311

2019-03-31 15:34  
Я був питав за доріжку, в тієї що надали (ААС 2.0) якість (спектр) такий самий, як і з онлайну (16 кГц).
Electroz 
Відео Гуртом - підтримка та поширення
Відео Гуртом - підтримка та поширення


З нами з: 18.09.14
Востаннє: 21.04.19
Повідомлень: 3265

2019-03-31 16:35  
del
igor911 
Відео Гуртом
Відео Гуртом


З нами з: 18.01.08
Востаннє: 21.04.19
Повідомлень: 12311

2019-03-31 18:38  
Electroz написано:
Можливо на слух буде краща і не перекодована.

https://fex.net/s/ozcamsc

UdBV 
Новенький


З нами з: 06.10.15
Востаннє: 20.04.19
Повідомлень: 3

2019-04-01 21:49  
Озвучення не супер і обмеження бюджету під кінець фільму помітно.Але фільм вартий того щоб його переглянути.(Все цікаве в 2й половині фільму,дочекайтесь).Особиста оцінка 9\10 і то за ляпи сюжету.
ron_ 
Частий відвідувач


З нами з: 03.02.11
Востаннє: 17.04.19
Повідомлень: 30

2019-04-03 00:42  
дешево і трешово
madagaskar1 
VIP


З нами з: 08.05.14
Востаннє: 19.04.19
Повідомлень: 657

2019-04-06 11:21  
повна хрінь навіть до кінця не додивися -10/10 краще б озвучили дійсно щось вартнісне перегляду
extreme1987 
Новенький


З нами з: 26.08.11
Востаннє: 16.04.19
Повідомлень: 7

2019-04-06 20:27  
сміття
casper101 
VIP


З нами з: 03.12.09
Востаннє: 20.04.19
Повідомлень: 393

2019-04-12 09:28  
Вимирання
vovang6 
Поважний учасник


З нами з: 27.08.12
Востаннє: 20.04.19
Повідомлень: 194

2019-04-12 13:40  
Непоганий фiльм. Iдея цiкава. 7/10.
0mage0 
VIP


З нами з: 06.10.15
Востаннє: 20.04.19
Повідомлень: 458

2019-04-17 19:51  
Цікавий фільм, хоча після перегляду більше запитань, ніж відповідей.
Отже, 50 років назад люди хотіли випиляти синтетиків, але зазнали неочікуваної поразки та були вимушені евакуюватися на Марс. Майже всі синтетики стерли собі пам'ять і вважають себе людьми, мають спогади як народжували та виховували своїх синтетичних дітей, яких також вважають людьми. При цьому за 50 років чуваки не постаріли і їхні "діти" як були дітьми, так ними й залишилися і нікого це не здивувало. Окрім того, вони впевнені, що їхні організми — людські, цікаво, що у них там роблять лікарі, адже вивчати людську анатомію має сенс тільки для вивчення ворога, синтетикам це не допоможе, а якщо лікарі вивчають анатомію синтетиків, то це означає, що вони не мали стирати пам'ять. І спеціальності лікарів, що лікують, чи ремонтують синтетиків явно відрізняються від людських. Отже, цікаво, в них є лікарні, що імітують людські лікарні? Чи це поранення було першим за 50 років? Також цікаво, як вони розмножуються?

Ваш часовий пояс: GMT + 2 Години

Нова тема   Відповісти