Ван Гог. На порозі вічності / At Eternity's Gate (2018) Remux 1080p 2xUkr/Eng | Sub Eng

Нові коментарі

Нова тема   Відповісти
Автор Повідомлення
Anonymous 







2019-03-31 11:02  
Ван Гог. На порозі вічності / At Eternity's Gate (2018) Remux 1080p 2хUkr/Eng | Sub Eng

Ван Гог. На порозі вічності / At Eternity's Gate (2018) Remux 1080p 2xUkr/Eng | Sub Eng


Жанр: біографія, драма
Країна: США, Велика Британія, Франція, Швейцарія, Ірландія





Кінокомпанія: CBS Films, Riverstone Pictures
Режисер: Джуліан Шнабель
Актори: Віллем Дефо, Руперт Френд, Оскар Айзек, Мадс Міккельсен, Матьє Амальрік, Емманюель Сеньє, Нільс Ареструп, Анн Косіньї, Аміра Касар, Венсан Перес

Сюжет:
Геніїв дуже рідко визнають за життя. Як правило, їх творчість лежить за рамками будь-якого часу – воно вічне. Дуже часто їх покоління не може зрозуміти все те, що генії заклали у своє дітище. Не знаходячи розуміння, вони можуть піти у вир алкоголю, просто втратити розум або покінчити життя самогубством. Одним із таких геніїв, безсумнівно, був Вінсент Ван Гог. Це була людина, який не могла не творити. Люди, бачачи його картини, не могли збагнути всієї суті, не хотіли розуміти бачення генія. Ван Гог багато пив, робив дивні речі та багатьма вважався божевільним. Лише найближчі друзі, такі як Поль Гоген, могли сказати, що Вінсент – справжній геній, який увійде в історію.


Тривалість: 01:51:17
Якість: Remux 1080p

Відео:
кодек:
розмір кадру: 1920x1080
бітрейт: 33,3 Мб/с

Аудіо # 1:
мова: українська
переклад: професійний дубльований | Itunes
кодек: 5.1
бітрейт: 384 кб/с

Аудіо # 2:
мова: українська
переклад: професійний дубльований | Itunes
кодек: 2.0
бітрейт: 192 кб/с

Аудіо # 3:
мова: українська
переклад: багатоголосий закадровий | DniproFilm
кодек: 5.1
бітрейт: 384 кб/с

Аудіо # 4:
мова: англійська
переклад: оригінал
кодек: 5.1
бітрейт: 448 кб/с

Аудіо # 5:
мова: англійська
переклад: оригінал
кодек: -HD MA 5.1
бітрейт: 2877 кб/с

Субтитри:
мова: англійська (на діалоги французькою)
тип: вбудовані (жорсткі)

Субтитри:
мова: англійська
тип: програмні (м'які)
формат: *.srt
Info
General
Complete name : At Eternity's Gate (2018) Remux [2xUKR_ENG] [Video_Hurtom].
Format :
Format version : Version 4
File size : 28.9 GiB
Duration : 1 h 51 min
Overall bit rate mode : Variable
Overall bit rate : 37.2 Mb/s
Movie name : At Eternity's Gate (2018) Remux [2xUKR_ENG] [Video_Hurtom]
Encoded date : UTC 2019-03-31 07:06:29
Writing application : v30.1.0 ('Forever And More') 64-bit
Writing library : libebml v1.3.6 + v1.4.9

Video
ID : 1
Format : AVC
Format/Info : Advanced Video Codec
Format profile : [email protected]
Format settings : CABAC / 4 Ref Frames
Format settings, CABAC : Yes
Format settings, RefFrames : 4 frames
Codec ID : V_MPEG4/ISO/AVC
Duration : 1 h 51 min
Bit rate mode : Variable
Bit rate : 33.3 Mb/s
Maximum bit rate : 37.0 Mb/s
Width : 1 920 pixels
Height : 1 080 pixels
Display aspect ratio : 16:9
Frame rate mode : Constant
Frame rate : 23.976 (24000/1001) FPS
Color space : YUV
Chroma subsampling : 4:2:0
Bit depth : 8 bits
Scan type : Progressive
Bits/(Pixel*Frame) : 0.670
Stream size : 25.9 GiB (90%)
Language : English
Default : Yes
Forced : No

Audio #1
ID : 2
Format : AC-3
Format/Info : Audio Coding 3
Commercial name : Dolby Digital
Codec ID : A_AC3
Duration : 1 h 51 min
Bit rate mode : Constant
Bit rate : 192 kb/s
Channel(s) : 2 channels
Channel layout : L R
Sampling rate : 48.0 kHz
Frame rate : 31.250 FPS (1536 SPF)
Bit depth : 16 bits
Compression mode : Lossy
Stream size : 153 MiB (1%)
Title : , 2 ch, 192 Кбт/с
Language : Ukrainian
Service kind : Complete Main
Default : Yes
Forced : No

Audio #2
ID : 3
Format : AC-3
Format/Info : Audio Coding 3
Commercial name : Dolby Digital
Codec ID : A_AC3
Duration : 1 h 51 min
Bit rate mode : Constant
Bit rate : 384 kb/s
Channel(s) : 6 channels
Channel layout : L R C LFE Ls Rs
Sampling rate : 48.0 kHz
Frame rate : 31.250 FPS (1536 SPF)
Bit depth : 16 bits
Compression mode : Lossy
Stream size : 306 MiB (1%)
Title : , 6 ch, 384 Кбт/с
Language : Ukrainian
Service kind : Complete Main
Default : No
Forced : No

Audio #3
ID : 4
Format : AC-3
Format/Info : Audio Coding 3
Commercial name : Dolby Digital
Codec ID : A_AC3
Duration : 1 h 51 min
Bit rate mode : Constant
Bit rate : 448 kb/s
Channel(s) : 6 channels
Channel layout : L R C LFE Ls Rs
Sampling rate : 48.0 kHz
Frame rate : 31.250 FPS (1536 SPF)
Bit depth : 16 bits
Compression mode : Lossy
Stream size : 357 MiB (1%)
Title : , 6 ch, 448 Кбт/с
Language : English
Service kind : Complete Main
Default : No
Forced : No

Audio #4
ID : 5
Format : XLL
Format/Info : Digital Theater Systems
Commercial name : -HD Master Audio
Codec ID : A_DTS
Duration : 1 h 51 min
Bit rate mode : Variable
Bit rate : 2 877 kb/s
Channel(s) : 6 channels
Channel layout : C L R Ls Rs LFE
Sampling rate : 48.0 kHz
Frame rate : 93.750 FPS (512 SPF)
Bit depth : 24 bits
Compression mode : Lossless
Stream size : 2.24 GiB (8%)
Title : -HD MA, 6 ch, 2877 Кбт/с
Language : English
Default : No
Forced : No

Text
ID : 6
Format : UTF-8
Codec ID : S_TEXT/UTF8
Codec ID/Info : UTF-8 Plain Text
Duration : 1 h 38 min
Bit rate : 41 b/s
Count of elements : 817
Stream size : 29.8 KiB (0%)
Title : Full
Language : English
Default : No
Forced : No

Menu
00:00:00.000 : :Chapter 1
00:07:12.849 : :Chapter 2
00:11:56.215 : :Chapter 3
00:20:15.756 : :Chapter 4
00:29:23.762 : :Chapter 5
00:33:38.683 : :Chapter 6
00:41:23.481 : :Chapter 7
00:48:02.963 : :Chapter 8
00:55:11.308 : :Chapter 9
01:02:23.907 : :Chapter 10
01:07:23.664 : :Chapter 11
01:14:19.455 : :Chapter 12
01:25:51.104 : :Chapter 13
01:27:59.065 : :Chapter 14
01:34:36.504 : :Chapter 15
01:42:08.831 : :Chapter 16
Скріншоти



Джерело:
Особиста оцінка: 8 - мені сподобалося


Авторський реліз (завантажувати можна без реєстрації)
 Трекер:    Зареєстрований   

Завантажити / скачати фільм українською



відео для новачків



 Зареєстрований:   2019-08-02 11:00
 Розмір:   29.25 GB 
 Оцінка фільму:   7.7/10 (Голосів: 7)
   
ВАВУНЯ 
VIP


З нами з: 30.06.15
Востаннє: 17.09.19
Повідомлень: 265

2019-04-12 11:30  
Не зрозумів задумів режисера, так незграбно знімати, а інколи ще й з "напіврозмитістю". О_о
6/10 лише завдяки Вілему Дефо - він неймовірний!

olyx 
Відео Гуртом - підтримка та поширення
Відео Гуртом - підтримка та поширення


З нами з: 26.01.10
Востаннє: 20.09.19
Повідомлень: 249

2019-04-14 18:46  
А є на толоці версія без примусово включених субтитрів? А то вже другий завантажую і та ж сама фігня. Дякую
igor911 
Модератор відео


З нами з: 18.01.08
Востаннє: 21.09.19
Повідомлень: 13383

2019-04-14 20:57  
olyx написано:
А є на толоці версія без примусово включених субтитрів?

яких? англійських?

Додано через 4 хвилини 46 секунд:

додав в опис.

Anonymous 







2019-08-02 11:02  


Торент файл оновлено


Додав UKR 5.1 | 384 iTunes



Anonymous 







2019-08-10 22:22  
На один раз кіно.
Ваш часовий пояс: GMT + 2 Години

Нова тема   Відповісти