Викрадена принцеса: Руслан і Людмила / The Stolen Princess (2018) Remux 1080p Ukr/Eng [Ger Blu-ray]

Нові коментарі

Нова тема   Відповісти
Автор Повідомлення
Anonymous 







2019-03-31 08:57  
Викрадена принцеса: Руслан і Людмила / The Stolen Princess (2018) Remux Ukr/Eng

Викрадена принцеса: Руслан і Людмила / The Stolen Princess (2018) Remux 1080p Ukr/Eng [Ger Blu-ray]


Жанр: анімація, комедія, пригодницький, фентезі
Країна: Україна



Кінокомпанія: Animagrad, Film.ua
Режисер: Олег Маламуж
Актори: Надя Дорофєєва, Олексій "Пазітів" Завгородній, Євген Малуха, Сергій Притула, Юрій Горбунов, Олег "Фагот" Михайлюта, Микола Боклан, Єгор Крутоголов, Олександр Бережок, Євген Гашенко, Маша Єфросиніна, Пупсі Кіра, Дмитро "Monatik" Монатик, Аревік Арзуманова, Олександр Усик, Василь Вірастюк, Олег Волощенко, Роман Луцький.

Сюжет:
Ця дивовижна історія відбулась у чарівному місті Києві – за часів відважних воїнів, прекрасних принцес і могутніх чаклунів. Мандрівний артист Руслан, який мріє стати лицарем, зустрів прекрасну Мілу і закохався в неї, навіть не підозрюючи, що дівчина - донька київського князя. Але щастю закоханих не судилося тривати вічно: злий чаклун Чорномор з’явився в магічному вихорі і на очах Руслана викрав кохану, прагнучи перетворити силу її кохання на власну чаклунську могутність. Не роздумуючи, Руслан рушив у погоню за вкраденою принцесою, щоб, здолавши всі перешкоди та небезпеки на своєму шляху, довести, що справжня любов – сильніша за магію.


Тривалість: 01:31:09
Якість: Remux 1080p [Ger Blu-ray]
Відео:
кодек:
розмір кадру: 1920x1080
бітрейт: 20 Мб/с
примітка щодо локалізації відеоряду: назва німецька, написи англійською та вбудовані (жорсткі) німецькі субтитри на них, титри англійською
Зразок локалізації:
Аудіо # 1:
мова: українська
переклад: професійний дубльований | студія Postmodern
кодек: 2.0
бітрейт: 192 кб/с

Аудіо # 2:
мова: англійська
переклад: професійний дубльований
кодек: 5.1
бітрейт: 640 кб/с

Аудіо # 3:
мова: англійська
переклад: професійний дубльований
кодек: -HD MA 5.1
бітрейт: 2097 кб/с
Info
General
Complete name : The Stolen Princess (2018) Remux [UKR_ENG].
Format :
Format version : Version 4
File size : 14.6 GiB
Duration : 1 h 31 min
Overall bit rate mode : Variable
Overall bit rate : 22.9 Mb/s
Movie name : The Stolen Princess (2018) Remux [UKR_ENG]
Encoded date : UTC 2019-03-31 06:38:32
Writing application : v30.1.0 ('Forever And More') 64-bit
Writing library : libebml v1.3.6 + v1.4.9

Video
ID : 1
Format : AVC
Format/Info : Advanced Video Codec
Format profile : [email protected]
Format settings : CABAC / 4 Ref Frames
Format settings, CABAC : Yes
Format settings, RefFrames : 4 frames
Codec ID : V_MPEG4/ISO/AVC
Duration : 1 h 31 min
Bit rate mode : Variable
Bit rate : 20.0 Mb/s
Maximum bit rate : 35.0 Mb/s
Width : 1 920 pixels
Height : 1 080 pixels
Display aspect ratio : 16:9
Frame rate mode : Constant
Frame rate : 24.000 FPS
Standard : NTSC
Color space : YUV
Chroma subsampling : 4:2:0
Bit depth : 8 bits
Scan type : Progressive
Bits/(Pixel*Frame) : 0.402
Stream size : 12.7 GiB (87%)
Language : English
Default : Yes
Forced : No
Color range : Limited
Color primaries : BT.709
Transfer characteristics : BT.709
Matrix coefficients : BT.709

Audio #1
ID : 2
Format : AC-3
Format/Info : Audio Coding 3
Commercial name : Dolby Digital
Codec ID : A_AC3
Duration : 1 h 30 min
Bit rate mode : Constant
Bit rate : 192 kb/s
Channel(s) : 2 channels
Channel layout : L R
Sampling rate : 48.0 kHz
Frame rate : 31.250 FPS (1536 SPF)
Bit depth : 16 bits
Compression mode : Lossy
Stream size : 125 MiB (1%)
Title : , 2 ch, 192 Кбт/с
Language : Ukrainian
Service kind : Complete Main
Default : Yes
Forced : No

Audio #2
ID : 3
Format : AC-3
Format/Info : Audio Coding 3
Commercial name : Dolby Digital
Codec ID : A_AC3
Duration : 1 h 31 min
Bit rate mode : Constant
Bit rate : 640 kb/s
Channel(s) : 6 channels
Channel layout : L R C LFE Ls Rs
Sampling rate : 48.0 kHz
Frame rate : 31.250 FPS (1536 SPF)
Bit depth : 16 bits
Compression mode : Lossy
Stream size : 417 MiB (3%)
Title : , 6 ch, 640 Кбт/с
Language : English
Service kind : Complete Main
Default : No
Forced : No

Audio #3
ID : 4
Format : XLL
Format/Info : Digital Theater Systems
Commercial name : -HD Master Audio
Codec ID : A_DTS
Duration : 1 h 31 min
Bit rate mode : Variable
Bit rate : 2 097 kb/s
Channel(s) : 6 channels
Channel layout : C L R Ls Rs LFE
Sampling rate : 48.0 kHz
Frame rate : 93.750 FPS (512 SPF)
Bit depth : 16 bits
Compression mode : Lossless
Stream size : 1.34 GiB (9%)
Title : TS-HD MA, 6 ch, 2097 Кбт/с
Language : English
Default : No
Forced : No
Скріншоти


Джерело:
Особиста оцінка: 7 - моїй подрузі не сподобалося


Золотий реліз (завантажене не впливає на рейтинг)
 Трекер:    Зареєстрований   

Завантажити / скачати український мультфільм



відео для новачків



 Зареєстрований:   2019-03-31 08:57
 Розмір:   14.59 GB 
 Оцінка мультфільму:   9.3/10 (Голосів: 11)
   
Anоnymous 
VIP


З нами з: 25.08.18
Востаннє: 04.06.19
Повідомлень: 808

2019-03-31 10:03  
Anonymous написано:
переклад: оригінал

Цікаво от чому в мультах вказую що мова у них оригінал?
Їх же ж по любому озвучували окрему

igor911 
Модератор відео


З нами з: 18.01.08
Востаннє: 18.11.19
Повідомлень: 13659

2019-03-31 10:16  
Яка тут локалізація відеоряду (назва, написи у відео)?
Anonymous 







2019-03-31 10:17  
igor911 написано:
Яка тут локалізація відеоряду (назва, написи у відео)?

En наче

Хоча назва дивна

igor911 
Модератор відео


З нами з: 18.01.08
Востаннє: 18.11.19
Повідомлень: 13659

2019-03-31 10:33  
Anonymous написано:

En наче

Хоча назва дивна

Бо це ремукс з німецького блурея.

Додано через 2 хвилини 5 секунд:

Назва німецька.

Ваш часовий пояс: GMT + 2 Години

Нова тема   Відповісти