Формула 1. Сезон 2019. Етап 2. Гран-Прі Бахрейну. Кваліфікація (30.03.2019) 1080p Ukr/Eng

Нові коментарі

Нова тема   Відповісти
Автор Повідомлення
sergiyko.5 
VIP


З нами з: 25.02.16
Востаннє: 27.10.20
Повідомлень: 3625

2019-03-30 22:12  
Формула 1. Сезон 2019. Етап 2. Гран-Прі Бахрейну. Кваліфікація (30.03.2019) 1080p Ukr/Eng

Формула 1. Сезон 2019. Етап 2. Гран-Прі Бахрейну. Кваліфікація (30.03.2019) 1080p Ukr/Eng

Жанр: Перегони Формули 1
Країна: Бахрейн
Телеканал: Sky Sport
Коментатор: Максим Подзігун

Опис:
Кваліфікація другого етапу Гран-Прі Бахрейну 2019 року.


Якість:

Відео:кодек: розмір кадру: 1920 х 1080 бітрейт: 5200 кб/с
Аудіо # 1: мова: українська кодек: MP2 2.0 бітрейт: 192 кб/с
Аудіо # 2: мова: англійська кодек: 2.0 бітрейт: 128 кб/с
Тривалість:
01:14:23
Про файл:
General
Unique ID : 190628948363153823410889435597020645760 (0x8F69CCCC45FD0FDDA24CE60E8688C980)
Complete name : G:\Torrents2\SPORT\Formula 1\F1.2019.Qualifying\F1.2019.02.Bahrain.Qualifying.1080p..Ukr.Eng.
Format :
Format version : Version 4
File size : 2.90 GiB
Duration : 1 h 14 min
Overall bit rate : 5 588 kb/s
Encoded date : UTC 2019-03-30 19:49:03
Writing application : v32.0.0 ('Astral Progressions') 64-bit
Writing library : libebml v1.3.7 + v1.5.0

Video
ID : 1
Format : AVC
Format/Info : Advanced Video Codec
Format profile : [email protected]
Format settings : CABAC / 4 Ref Frames
Format settings, CABAC : Yes
Format settings, ReFrames : 4 frames
Codec ID : V_MPEG4/ISO/AVC
Duration : 1 h 14 min
Bit rate : 5 268 kb/s
Width : 1 920 pixels
Height : 1 080 pixels
Display aspect ratio : 16:9
Frame rate mode : Constant
Frame rate : 25.000 FPS
Color space : YUV
Chroma subsampling : 4:2:0
Bit depth : 8 bits
Scan type : Progressive
Bits/(Pixel*Frame) : 0.102
Stream size : 2.74 GiB (94%)
Language : English
Default : Yes
Forced : No

Audio #1
ID : 2
Format : MPEG Audio
Format version : Version 1
Format profile : Layer 2
Codec ID : A_MPEG/L2
Codec ID/Hint : MP2
Duration : 1 h 14 min
Bit rate mode : Constant
Bit rate : 192 kb/s
Channel(s) : 2 channels
Sampling rate : 48.0 kHz
Frame rate : 41.667 FPS (1152 SPF)
Compression mode : Lossy
Delay relative to video : 7 ms
Stream size : 102 MiB (3%)
Title : Максим Подзігун
Language : Ukrainian
Default : Yes
Forced : Yes

Audio #2
ID : 3
Format : LC
Format/Info : Advanced Audio Codec Low Complexity
Codec ID : A_AAC-2
Duration : 1 h 14 min
Bit rate : 125 kb/s
Channel(s) : 2 channels
Channel layout : L R
Sampling rate : 48.0 kHz
Frame rate : 46.875 FPS (1024 SPF)
Compression mode : Lossy
Delay relative to video : 17 ms
Stream size : 66.7 MiB (2%)
Language : English
Default : No
Forced : No
Скріншоти:



Зведення: sergiyko


 Трекер:    Зареєстрований   

Завантажити / скачати торрент



відео для новачків



 Зареєстрований:   2019-03-30 22:12
 Розмір:   2.9 GB 
 Оцінка:   9.9/10 (Голосів: 18)
   
sergiyko.5 
VIP


З нами з: 25.02.16
Востаннє: 27.10.20
Повідомлень: 3625

2019-03-31 18:35  
Реліз перегонів у Бахрейні завтра зранку, зараз на роботі.
Hector Escaton 
Забанено
Забанено


З нами з: 29.07.18
Востаннє: 19.04.19
Повідомлень: 42

2019-03-31 18:55  
Дякуємо!


повторний профіль, видано igor911
legioneRRR 
Частий відвідувач


З нами з: 02.01.15
Востаннє: 26.10.20
Повідомлень: 33

2019-03-31 19:17  
Ух там гонка!
Cry (2) Cry (2)

Ваш часовий пояс: GMT + 2 Години

Нова тема   Відповісти