Темні часи / Darkest Hour (2017) UHD Remux 2160p 4K HDR H.265 Ukr/Eng | Sub Eng

Нові коментарі

Нова тема   Відповісти
Автор Повідомлення
Documentalist 
Свій


З нами з: 04.06.17
Востаннє: 15.10.19
Повідомлень: 60

2019-03-30 22:14  
Темні часи / Darkest Hour (2017) UHD Remux 2160p 4K HDR H.265 Ukr/Eng | Sub Eng

Темні часи / Darkest Hour (2017) UHD Remux 2160p 4K HDR H.265 Ukr/Eng | Sub Eng


Жанр: біографічний, військовий, драма, історичний
Країна: Велика Британія



Кінокомпанія: Universal Pictures, Focus Features, Working Title Films
Режисер: Джо Райт / Joe Wright
Актори: Ґері Олдмен / Gary Oldman, Крістін Скотт Томас / Kristin Scott Thomas, Бен Мендельсон / Ben Mendelsohn, Лілі Джеймс / Lily James, Стівен Діллейн / Stephen Dillane, Рональд Пікап / Ronald Pickup, Ніколас Джонс / Nicholas Jones, Семюел Вест / Samuel West, Девід Скофілд / David Schofield, Анна Барнетт / Anna Burnett, Піп Торренс / Pip Torrens та інші

Сюжет:
Початок Другої Світової війни. Франція вже впала під натиском агресії Адольфа Гітлера, далі - черга Великої Британії. Уряд острова зіштовхуються з вибором – продовжувати боротьбу або домовлятися про перемир'я. Начебто в нацистів і є перевага в силі, і велика частина армії Великої Британії перебуває в оточенні на пляжах Дюнкерка, але новообраний Прем'єр-Міністр Вінстон Черчилль має свій план дій. Він не збирається ні з ким домовлятися, адже розуміє, до яких наслідків це може призвести. Тільки заступивши на посаду і отримавши таку владу, Вінстон повинен контролювати незгодних міністрів і боротися за життя кожного громадянина Співдружності. Колись ця людина ввійде в історію.


Тривалість: 02:05:00

Якість: UHD Remux
Відео:
кодек: H.265
розмір кадру: 3840x2160
бітрейт: 49.6 Мб/с
бітова глибина: 10 біт
кольоровий простір: BT.2020 (HDR)

Аудіо:
мова: українська
переклад: професійний дубльований
кодек: 2.0
бітрейт: 192 кб/с

Аудіо: # 2:
мова: англійська
переклад: оригінал
кодек: TrueHD+Atmos / TrueHD 7.1
бітрейт: 4225 Мб/с

Субтитри:
мова: українська (форсовані)
тип: програмні (м'які)
формат: *.srt

Субтитри:# 2:
мова: англійська (SDH)
тип: програмні (м'які)
формат: *.srt

Субтитри:# 3:
мова: англійська (SDH)
переклад: коментарі режисера Джо Райта
тип: програмні (м'які)
формат: *.srt
Info
Format :
Format version : Version 4
File size : 47.3 GiB
Duration : 2 h 5 min
Overall bit rate mode : Variable
Overall bit rate : 54.1 Mb/s
Movie name : Темні часи / Darkest Hour ( 2017 ) UHD Remux | HDR, 4K | [Hurtom]
Encoded date : UTC 2019-03-30 08:09:16
Writing application : v7.8.0 ('River Man') 32bit built on Mar 27 2015 16:18:02
Writing library : libebml v1.3.1 + v1.4.2
Cover : Yes
Attachments : cover.jpg

Video
ID : 1
Format : HEVC
Format/Info : High Efficiency Video Coding
Commercial name : HDR10
Format profile : Main [email protected]@High
Codec ID : V_MPEGH/ISO/HEVC
Duration : 2 h 5 min
Bit rate : 49.6 Mb/s
Width : 3 840 pixels
Height : 2 160 pixels
Display aspect ratio : 16:9
Frame rate mode : Constant
Frame rate : 23.976 (24000/1001) FPS
Color space : YUV
Chroma subsampling : 4:2:0 (Type 2)
Bit depth : 10 bits
Bits/(Pixel*Frame) : 0.249
Stream size : 43.4 GiB (92%)
Title : Темні часи
Writing library : ATEME Titan File 3.8.14 (4.8.14.0)
Language : Ukrainian
Default : Yes
Forced : No
Color range : Limited
Color primaries : BT.2020
Transfer characteristics : PQ
Matrix coefficients : BT.2020 non-constant
Mastering display color pri : Display P3
Mastering display luminance : min: 0.0050 cd/m2, max: 1000 cd/m2
Maximum Content Light Level : 662 cd/m2
Maximum Frame-Average Light : 151 cd/m2

Audio #1
ID : 2
Format : AC-3
Format/Info : Audio Coding 3
Commercial name : Dolby Digital
Codec ID : A_AC3
Duration : 2 h 5 min
Bit rate mode : Constant
Bit rate : 192 kb/s
Channel(s) : 2 channels
Channel layout : L R
Sampling rate : 48.0 kHz
Frame rate : 31.250 FPS (1536 SPF)
Bit depth : 16 bits
Compression mode : Lossy
Stream size : 172 MiB (0%)
Language : Ukrainian
Service kind : Complete Main
Default : Yes
Forced : Yes

Audio #2
ID : 3
Format : MLP FBA 16-ch
Format/Info : Meridian Lossless Packing FBA with 16-channel presentation
Commercial name : Dolby TrueHD with Dolby Atmos
Codec ID : A_TRUEHD
Duration : 2 h 5 min
Bit rate mode : Variable
Bit rate : 4 225 kb/s
Maximum bit rate : 6 603 kb/s
Channel(s) : 8 channels
Channel layout : L R C LFE Ls Rs Lb Rb
Sampling rate : 48.0 kHz
Frame rate : 1 200.000 FPS (40 SPF)
Compression mode : Lossless
Delay relative to video : 32 ms
Stream size : 3.70 GiB (8%)
Title : | Original |
Language : English
Default : No
Forced : No
Number of dynamic objects : 11
Bed channel count : 1 channel
Bed channel configuration : LFE

Text #1
ID : 4
Format : UTF-8
Codec ID : S_TEXT/UTF8
Codec ID/Info : UTF-8 Plain Text
Duration : 1 h 58 min
Bit rate : 1 b/s
Count of elements : 15
Stream size : 1.52 KiB (0%)
Title : Forced
Language : Ukrainian
Default : No
Forced : Yes

Text #2
ID : 5
Format : UTF-8
Codec ID : S_TEXT/UTF8
Codec ID/Info : UTF-8 Plain Text
Duration : 4 s 880 ms
Bit rate : 83 b/s
Count of elements : 3
Stream size : 51.0 Bytes (0%)
Title : Forced
Language : English
Default : No
Forced : Yes

Text #3
ID : 6
Format : UTF-8
Codec ID : S_TEXT/UTF8
Codec ID/Info : UTF-8 Plain Text
Duration : 1 h 57 min
Bit rate : 56 b/s
Count of elements : 1759
Stream size : 48.4 KiB (0%)
Title : Full
Language : English
Default : No
Forced : No

Text #4
ID : 7
Format : UTF-8
Codec ID : S_TEXT/UTF8
Codec ID/Info : UTF-8 Plain Text
Duration : 1 h 59 min
Bit rate : 90 b/s
Count of elements : 2064
Stream size : 79.3 KiB (0%)
Title : Comm. Joe Wright
Language : English
Default : No
Forced : No

Menu
00:00:00.000 : en:Chapter 1
00:05:44.052 : en:Chapter 2
00:10:41.974 : en:Chapter 3
00:14:23.612 : en:Chapter 4
00:22:57.084 : en:Chapter 5
00:29:47.202 : en:Chapter 6
00:37:33.542 : en:Chapter 7
00:41:28.611 : en:Chapter 8
00:48:50.928 : en:Chapter 9
00:56:40.522 : en:Chapter 10
01:03:02.487 : en:Chapter 11
01:11:21.026 : en:Chapter 12
01:19:05.490 : en:Chapter 13
01:24:29.814 : en:Chapter 14
01:30:49.652 : en:Chapter 15
01:36:22.777 : en:Chapter 16
01:39:57.992 : en:Chapter 17
01:45:44.129 : en:Chapter 18
01:53:19.250 : en:Chapter 19
02:00:08.618 : en:Chapter 20
Скріншоти









Джерело: &
Особиста оцінка: 10 - без зайвих вагань рекомендую всім!


Золотий реліз (завантажене не впливає на рейтинг)
 Трекер:    Зареєстрований   

Завантажити / скачати фільм українською



відео для новачків



 Зареєстрований:   2019-03-30 22:14
 Розмір:   47.3 GB 
 Оцінка фільму:   9.3/10 (Голосів: 14)
   
Інші релізи
   Темні часи / Darkest Hour (2017) igor911  48 / 0   1.45 GB   2018-05-06 18:41 
   Темні часи / Darkest Hour (2017) Remux 1080p Ukr/Eng | Sub Eng staf777  2 / 0   32.04 GB   2018-05-06 18:10 
   Темні часи / Darkest Hour (2017) 1080p Ukr/Eng | Sub Eng igor911  25 / 0   13.93 GB   2018-05-06 18:04 
   Темні часи / Darkest Hour (2017) AVC Ukr/Eng | Sub Eng igor911  16 / 1   3.05 GB   2018-05-06 17:17 
   Темні часи / Darkest Hour (2017) 720p Ukr/Eng | Sub Eng legos25  42 / 0   4.54 GB   2018-05-06 14:38 
igor911 
Модератор відео


З нами з: 18.01.08
Востаннє: 19.10.19
Повідомлень: 13539

2019-03-31 00:51  
Documentalist написано:

Субтитри:# 2:
мова: англійська (SDH)
тип: пререндерні

Треба виправити на "програмні (м'які)". Аналогічно в Субтитри:# 3:
Також, треба додати п. "Джерело"

Documentalist 
Свій


З нами з: 04.06.17
Востаннє: 15.10.19
Повідомлень: 60

2019-03-31 01:11  
igor911
Яке джерело?
Завантажив на ettv так i написати?

igor911 
Модератор відео


З нами з: 18.01.08
Востаннє: 19.10.19
Повідомлень: 13539

2019-03-31 19:17  
Documentalist написано:
Завантажив на ettv так i написати?

і українська доріжка там була з сабами? ну-ну
до речі, на ettv немає UHD Remux'а взагалі.

dy 
Новенький


З нами з: 01.03.14
Востаннє: 27.09.19
Повідомлень: 2

2019-04-10 21:33  
[офтоп видалено]
Ваш часовий пояс: GMT + 2 Години

Нова тема   Відповісти