Прощавай коханцю / Goodbye Lover (1998) 1080p Ukr/Eng | sub Eng

Нові коментарі

Нова тема   Відповісти
Автор Повідомлення
Anonymous 







2019-03-30 18:11  
Прощавай коханцю / Goodbye Lover (1998) 1080p Ukr/Eng | sub Eng

Прощавай коханцю / Goodbye Lover (1998) 1080p Ukr/Eng | sub Eng


Жанр: комедія, кримінальний
Країна: США



Кінокомпанія: Regency Enterprises, Gotham Entertainment Group
Режисер: Roland Joffé
Актори: Патрісія Аркет, Дерлот Марлуні, Елен де Женерес, Дон Джонсон, Марі-Луїза Паркер,

Сюжет:
Зло ще ніколи не було таким привабливим - Патриція Аркет створює один із самих чудових образів фатальної жінки. Сучасної, ділової, що вбиває своїх коханців під «Звуки музики». У сплетену нею павутину інтриг потрапляють буквально всі навколо. Під підозрою - її чоловік, її коханець, дружина її коханця, коханка її чоловіка й навіть поліцейські, що розслідують убивства - одне... друге... третє... Низці дивних персонажів позаздрив би Девід Лінч. Ви жодного разу не зможете із упевненістю сказати, що відбудеться в наступну мить. З кожною хвилиною атмосфера цього божевільного чорного фільму буде затягувати вас усе глибше, з кожним новим сюжетним поворотом ви будете чекати більшого - і фільм виправдає ваші надії.


Тривалість: 01:41:00
Якість: 1080p
Відео:
кодек:
розмір кадру: 1920 х 816
бітрейт: 8527 кб/с

Аудіо # 1:
мова: українська
переклад: багатоголосий закадровий
кодек: 2.0
бітрейт: 192 кб/с

Аудіо # 2:
мова: англійська
переклад: оригінал
кодек: E- 2.0
бітрейт: 224 кб/с

Субтитри:
мова: англійська
тип: програмні (м'які)
формат: *.srt
Info
General
Unique ID : 230636155070661299265203516459800395330 (0xAD82E8610D40B17F7213737C84BCFE42)
Complete name : G:\HD Films\Goodbye Lover (1998) 1080p [ukr.eng] Hurtom.
Format :
Format version : Version 4
File size : 6.31 GiB
Duration : 1 h 41 min
Overall bit rate mode : Variable
Overall bit rate : 8 945 kb/s
Encoded date : UTC 2019-03-30 15:28:25
Writing application : v32.0.0 ('Astral Progressions') 64-bit
Writing library : libebml v1.3.7 + v1.5.0

Video
ID : 1
Format : AVC
Format/Info : Advanced Video Codec
Format profile : [email protected]
Format settings : CABAC / 4 Ref Frames
Format settings, CABAC : Yes
Format settings, ReFrames : 4 frames
Codec ID : V_MPEG4/ISO/AVC
Duration : 1 h 41 min
Bit rate mode : Variable
Bit rate : 8 527 kb/s
Maximum bit rate : 15.0 Mb/s
Width : 1 920 pixels
Height : 816 pixels
Display aspect ratio : 2.35:1
Frame rate mode : Constant
Frame rate : 23.976 (24000/1001) FPS
Color space : YUV
Chroma subsampling : 4:2:0
Bit depth : 8 bits
Scan type : Progressive
Bits/(Pixel*Frame) : 0.227
Stream size : 6.02 GiB (95%)
Writing library : core 148 r2623 d5b2374
Encoding settings : cabac=1 / ref=4 / deblock=1:-1:-1 / analyse=0x3:0x133 / me=umh / subme=9 / psy=1 / psy_rd=1.00:0.15 / mixed_ref=1 / me_range=24 / chroma_me=1 / trellis=2 / 8x8dct=1 / cqm=0 / deadzone=21,11 / fast_pskip=1 / chroma_qp_offset=-3 / threads=25 / lookahead_threads=4 / sliced_threads=0 / nr=150 / decimate=1 / interlaced=0 / bluray_compat=0 / constrained_intra=0 / bframes=8 / b_pyramid=2 / b_adapt=2 / b_bias=0 / direct=3 / weightb=1 / open_gop=0 / weightp=2 / keyint=120 / keyint_min=61 / scenecut=0 / intra_refresh=0 / rc_lookahead=120 / rc=crf / mbtree=1 / crf=18.0 / qcomp=0.60 / qpmin=0 / qpmax=69 / qpstep=4 / vbv_maxrate=15000 / vbv_bufsize=31250 / crf_max=0.0 / nal_hrd=vbr / filler=0 / ip_ratio=1.40 / aq=3:1.00
Language : English
Default : Yes
Forced : No
Color range : Limited
Color primaries : BT.709
Transfer characteristics : BT.709
Matrix coefficients : BT.709

Audio #1
ID : 2
Format : AC-3
Format/Info : Audio Coding 3
Commercial name : Dolby Digital
Codec ID : A_AC3
Duration : 1 h 41 min
Bit rate mode : Constant
Bit rate : 192 kb/s
Channel(s) : 2 channels
Channel layout : L R
Sampling rate : 48.0 kHz
Frame rate : 31.250 FPS (1536 SPF)
Bit depth : 16 bits
Compression mode : Lossy
Stream size : 139 MiB (2%)
Title : ICTV channel (MVO)
Language : Ukrainian
Service kind : Complete Main
Default : Yes
Forced : No

Audio #2
ID : 3
Format : E-AC-3
Format/Info : Enhanced AC-3
Commercial name : Dolby Digital Plus
Codec ID : A_EAC3
Duration : 1 h 41 min
Bit rate mode : Constant
Bit rate : 224 kb/s
Channel(s) : 2 channels
Channel layout : L R
Sampling rate : 48.0 kHz
Frame rate : 31.250 FPS (1536 SPF)
Compression mode : Lossy
Stream size : 162 MiB (3%)
Language : English
Service kind : Complete Main
Default : No
Forced : No

Text
ID : 4
Format : UTF-8
Codec ID : S_TEXT/UTF8
Codec ID/Info : UTF-8 Plain Text
Duration : 1 h 40 min
Bit rate : 68 b/s
Count of elements : 1907
Stream size : 50.6 KiB (0%)
Language : English
Default : No
Forced : No
Скріншоти











Джерело: &


Срібний реліз (на рейтинг впливає 50% завантаженого)
 Трекер:    Зареєстрований   

Завантажити / скачати фільм українською



відео для новачків



 Зареєстрований:   2019-03-30 18:11
 Розмір:   6.31 GB 
 Оцінка фільму:   10/10 (Голосів: 1)
   
alexcaptain 
Свій


З нами з: 20.03.14
Востаннє: 08.12.19
Повідомлень: 111

2019-03-31 12:12  
Опис фільму трохи перебільшено, але загалом фільм вартий до перегляду
oberezny 
Свій


З нами з: 03.10.12
Востаннє: 27.10.19
Повідомлень: 92

2019-03-31 14:32  
«Під підозрою - ... й навіть поліцейських...» - щось не так із граматикою
Ваш часовий пояс: GMT + 2 Години

Нова тема   Відповісти