Ходять чутки / Rumor Has It... (2005) 1080p Ukr/Eng | sub Eng

Нові коментарі

Нова тема   Відповісти
Автор Повідомлення
Anonymous 







2019-03-30 14:05  
Ходять чутки / Rumor Has It... (2005) 1080p Ukr/Eng | sub Eng

Ходять чутки / Rumor Has It... (2005) 1080p Ukr/Eng | sub Eng


Жанр: комедія, драма, романтичний
Країна: США



Кінокомпанія: Warner Bros., Section Eight Ltd., Spring Creek Productions, Village Roadshow Pictures
Режисер: Роб Райнер
Актори: Дженніфер Аністон, Кевін Костнер, Ширлі Маклейн, Марк Руффало, Міна Суварі.

Сюжет:
Сара Хаттінгер відчуває розгубленість. Вона - гарний журналіст, але змушена вести колонку некрологів у газеті. Вона нарешті погодилася вийти заміж за свого бойфренда Джеффа, але усе ще не впевнена до кінця, що дійсно хоче цього весілля. А поки Сара вирушає додому у Пасадену на весілля сестри, а це означає, що вона має провести чимало часу зі своєю схибленою на тенісі сімейкою, членом якої вона себе ніколи не відчувала. Випадково вона дізнається про дбайливо охороняєму сімейну таємницю, і після цього її переповнюють сумніви щодо свого походження. Щоб знайти відповідь на це хвилююче для неї запитання, Сара розпочинає пошук людини, яка, імовірно, зможе їй допомогти...


Тривалість: 01:36:45
Якість:
Відео:
кодек:
розмір кадру: 1920 х 1080
бітрейт: 11 100 кб/с

Аудіо # 1:
мова: українська
переклад: двоголосий закадровий
кодек: 2.0
бітрейт: 192 кб/с

Аудіо # 2:
мова: англійська
переклад: оригінал
кодек: 5.1
бітрейт: 640 кб/с

Субтитри:
мова: англійська
тип: програмні (м'які)
формат: *.srt
Info
General
Unique ID : 336554527909587986039304020062307926970 (0xFD320B58B01409FBB728051E71F0C3BA)
Complete name : G:\HD Films\Rumor has it... (2005) 1080p [ukr.eng] Hurtom.
Format :
Format version : Version 4
File size : 8.07 GiB
Duration : 1 h 36 min
Overall bit rate : 11.9 Mb/s
Encoded date : UTC 2019-03-30 10:42:56
Writing application : v32.0.0 ('Astral Progressions') 64-bit
Writing library : libebml v1.3.7 + v1.5.0

Video
ID : 1
Format : AVC
Format/Info : Advanced Video Codec
Format profile : [email protected]
Format settings : CABAC / 4 Ref Frames
Format settings, CABAC : Yes
Format settings, ReFrames : 4 frames
Format settings, GOP : N=1
Codec ID : V_MPEG4/ISO/AVC
Duration : 1 h 36 min
Bit rate : 11.1 Mb/s
Width : 1 920 pixels
Height : 1 080 pixels
Display aspect ratio : 16:9
Frame rate mode : Constant
Frame rate : 23.976 (24000/1001) FPS
Color space : YUV
Chroma subsampling : 4:2:0
Bit depth : 8 bits
Scan type : Progressive
Bits/(Pixel*Frame) : 0.224
Stream size : 7.51 GiB (93%)
Writing library : core 57 svn-721M
Encoding settings : cabac=1 / ref=4 / deblock=1:-3:-3 / analyse=0x3:0x113 / me=umh / subme=7 / brdo=1 / mixed_ref=1 / me_range=16 / chroma_me=1 / trellis=1 / 8x8dct=1 / cqm=2 / deadzone=21,11 / chroma_qp_offset=0 / threads=6 / nr=0 / decimate=0 / mbaff=0 / bframes=3 / b_pyramid=1 / b_adapt=1 / b_bias=0 / direct=3 / wpredb=1 / bime=1 / keyint=250 / keyint_min=25 / scenecut=40(pre) / rc=2pass / bitrate=11114 / ratetol=1.0 / rceq='blurCplx^(1-qComp)' / qcomp=0.60 / qpmin=10 / qpmax=51 / qpstep=4 / cplxblur=20.0 / qblur=0.5 / ip_ratio=1.40 / pb_ratio=1.30 / aq=1:0.3:0.0
Language : English
Default : Yes
Forced : No

Audio #1
ID : 2
Format : AC-3
Format/Info : Audio Coding 3
Commercial name : Dolby Digital
Codec ID : A_AC3
Duration : 1 h 36 min
Bit rate mode : Constant
Bit rate : 192 kb/s
Channel(s) : 2 channels
Channel layout : L R
Sampling rate : 48.0 kHz
Frame rate : 31.250 FPS (1536 SPF)
Bit depth : 16 bits
Compression mode : Lossy
Stream size : 133 MiB (2%)
Title : NOVY channel (DVO)
Language : Ukrainian
Service kind : Complete Main
Default : Yes
Forced : No

Audio #2
ID : 3
Format : AC-3
Format/Info : Audio Coding 3
Commercial name : Dolby Digital
Codec ID : A_AC3
Duration : 1 h 36 min
Bit rate mode : Constant
Bit rate : 640 kb/s
Channel(s) : 6 channels
Channel layout : L R C LFE Ls Rs
Sampling rate : 48.0 kHz
Frame rate : 31.250 FPS (1536 SPF)
Bit depth : 16 bits
Compression mode : Lossy
Stream size : 443 MiB (5%)
Title : 5.1 640 kbps
Language : English
Service kind : Complete Main
Default : No
Forced : No

Text
ID : 4
Format : UTF-8
Codec ID : S_TEXT/UTF8
Codec ID/Info : UTF-8 Plain Text
Duration : 1 h 33 min
Bit rate : 75 b/s
Count of elements : 1336
Stream size : 51.5 KiB (0%)
Language : English
Default : No
Forced : No
Скріншоти










Постер: Кіт Баюн

Джерело: &


 Трекер:    Зареєстрований   

Завантажити / скачати фільм українською



відео для новачків



 Зареєстрований:   2019-03-30 14:05
 Розмір:   8.07 GB 
 Оцінка фільму:   -/10 (Голосів: 0)
   
Інші релізи
   Ходять чутки / Rumor Has It... (2005) Кіт Баюн  3 / 0   1.45 GB   2009-02-11 17:12 
Ваш часовий пояс: GMT + 2 Години

Нова тема   Відповісти