Міс Поттер / Miss Potter (2006) 1080p Ukr/Eng | sub Ukr/Eng

Нові коментарі

Нова тема   Відповісти
Автор Повідомлення
Anonymous 







2019-03-30 12:07  
Міс Поттер / Miss Potter (2006) 1080p Ukr/Eng | sub Ukr/Eng

Міс Поттер / Miss Potter (2006) 1080p Ukr/Eng | sub Ukr/Eng


Жанр: біографічний, драма, сімейний
Країна: Великобританія, США



Кінокомпанія: Phoenix Pictures, David Kirschner Productions, BBC Films
Режисер: Кріс Нунен (Chris Noonan)
Актори: Рене Зеллвегер (Renée Zellweger), Е́ван Макгре́гор (Ewan McGregor), Емілі Уотсон (Emily Watson), Барбара Флінн (Barbara Flynn), Білл Патерсон (Bill Paterson), Метілок Гіббс (Matyelok Gibbs), Ллойд Оуен (Lloyd Owen), Ентон Лессер (Anton Lesser), Девід Бамбер (David Bamber), Філліда Ло (Phyllida Law), Люсі Бойнтон (Lucy Boynton), Джастін МакДональд (Justin McDonald), Джон Вудвайн (John Woodvine), Джейн Хау (Jane How), Джеффрі Біверс (Geoffrey Beevers), Патриція Керріган (Patricia Kerrigan), Олівер Дженкінс (Oliver Jenkins), Джудіт Баркер (Judith Barker), Дженніфер Кастл (Jennifer Castle), Кріс Міддлтон (Chris Middleton), Лінн Фарлі (Lynn Farleigh), Бріджет МакКоннелл (Bridget McConnell), Клер Кліффорд(Clare Clifford), Енді МакСорлі (Andy McSorley), Сара Кроуден (Sarah Crowden), Річард Малхолланд (Richard Mulholland), Марк Фінн (Marc Finn)

Сюжет:
Заснований на реальних подіях фільм розповідає про життя англійської дитячої письменниці кінця 19-го століття Беатрікс Поттер. В епоху, коли більшість молодих жінок її стану мріяли тільки про вигідне заміжжя, Беатрікс пішла наперекір звичаям і традиціям вікторіанської Англії, проявивши вільнодумство, аж ніяк не характерне для жінок свого часу ...


Тривалість: 01:28:49
Якість:
Відео:
кодек:
розмір кадру: 1920 х 798
бітрейт: 11 100 кб/с

Аудіо # 1:
мова: українська
переклад: багатоголосий закадровий
кодек: 2.0
бітрейт: 192 кб/с

Аудіо # 2:
мова: англійська
переклад: оригінал
кодек: 5.1
бітрейт: 1509 кб/с

Субтитри:
мова: англійська
тип: програмні (м'які)
формат: *.srt
Info
General
General
Unique ID : 84456951658785794672441391572063119180 (0x3F89D1356773E162FC2AE012776C674C)
Complete name : G:\HD Films\Miss Potter (2006) 1080p [ukr.eng] Hurtom.
Format :
Format version : Version 4
File size : 7.96 GiB
Duration : 1 h 28 min
Overall bit rate : 12.8 Mb/s
Encoded date : UTC 2019-03-30 09:15:09
Writing application : v32.0.0 ('Astral Progressions') 64-bit
Writing library : libebml v1.3.7 + v1.5.0

Video
ID : 1
Format : AVC
Format/Info : Advanced Video Codec
Format profile : [email protected]
Format settings : CABAC / 4 Ref Frames
Format settings, CABAC : Yes
Format settings, ReFrames : 4 frames
Codec ID : V_MPEG4/ISO/AVC
Duration : 1 h 28 min
Bit rate : 11.1 Mb/s
Width : 1 920 pixels
Height : 798 pixels
Display aspect ratio : 2.40:1
Frame rate mode : Constant
Frame rate : 25.000 FPS
Color space : YUV
Chroma subsampling : 4:2:0
Bit depth : 8 bits
Scan type : Progressive
Bits/(Pixel*Frame) : 0.290
Stream size : 6.90 GiB (87%)
Writing library : core 142 r2431 ac76440
Encoding settings : cabac=1 / ref=4 / deblock=1:-1:-1 / analyse=0x3:0x113 / me=umh / subme=9 / psy=1 / psy_rd=1.00:0.15 / mixed_ref=1 / me_range=32 / chroma_me=1 / trellis=2 / 8x8dct=1 / cqm=0 / deadzone=21,11 / fast_pskip=1 / chroma_qp_offset=-3 / threads=6 / lookahead_threads=1 / sliced_threads=0 / nr=0 / decimate=1 / interlaced=0 / bluray_compat=0 / constrained_intra=0 / bframes=8 / b_pyramid=2 / b_adapt=2 / b_bias=0 / direct=3 / weightb=1 / open_gop=0 / weightp=2 / keyint=240 / keyint_min=24 / scenecut=40 / intra_refresh=0 / rc_lookahead=40 / rc=crf / mbtree=0 / crf=17.8 / qcomp=0.60 / qpmin=0 / qpmax=69 / qpstep=4 / vbv_maxrate=40000 / vbv_bufsize=50000 / crf_max=0.0 / nal_hrd=none / filler=0 / ip_ratio=1.40 / pb_ratio=1.30 / aq=1:1.00
Language : English
Default : Yes
Forced : No

Audio #1
ID : 2
Format : AC-3
Format/Info : Audio Coding 3
Commercial name : Dolby Digital
Codec ID : A_AC3
Duration : 1 h 28 min
Bit rate mode : Constant
Bit rate : 192 kb/s
Channel(s) : 2 channels
Channel layout : L R
Sampling rate : 48.0 kHz
Frame rate : 31.250 FPS (1536 SPF)
Bit depth : 16 bits
Compression mode : Lossy
Stream size : 122 MiB (1%)
Title : K1, ICTV channel (MVO)
Language : Ukrainian
Service kind : Complete Main
Default : Yes
Forced : No

Audio #2
ID : 3
Format :
Format/Info : Digital Theater Systems
Codec ID : A_DTS
Duration : 1 h 28 min
Bit rate mode : Constant
Bit rate : 1 509 kb/s
Channel(s) : 6 channels
Channel layout : C L R Ls Rs LFE
Sampling rate : 48.0 kHz
Frame rate : 93.750 FPS (512 SPF)
Bit depth : 16 bits
Compression mode : Lossy
Stream size : 959 MiB (12%)
Title : Original
Language : English
Default : No
Forced : No

Text #1
ID : 4
Format : UTF-8
Codec ID : S_TEXT/UTF8
Codec ID/Info : UTF-8 Plain Text
Duration : 1 h 23 min
Bit rate : 112 b/s
Count of elements : 1067
Stream size : 69.4 KiB (0%)
Language : Ukrainian
Default : Yes
Forced : No

Text #2
ID : 5
Format : UTF-8
Codec ID : S_TEXT/UTF8
Codec ID/Info : UTF-8 Plain Text
Duration : 1 h 20 min
Bit rate : 74 b/s
Count of elements : 1152
Stream size : 44.2 KiB (0%)
Language : English
Default : No
Forced : No

Menu
00:00:00.000 : :Chapter 01
00:08:05.359 : :Chapter 02
00:16:06.840 : :Chapter 03
00:22:07.680 : :Chapter 04
00:27:05.440 : :Chapter 05
00:35:26.000 : :Chapter 06
00:38:31.639 : :Chapter 07
00:51:54.039 : :Chapter 08
00:55:57.679 : :Chapter 09
01:01:29.559 : :Chapter 10
01:12:16.359 : :Chapter 11
01:18:03.479 : :Chapter 12
Скріншоти












Українські субтитри: urij546724
Постер: pan_oleg

Джерело: &


 Трекер:    Зареєстрований   

Завантажити / скачати фільм українською



відео для новачків



 Зареєстрований:   2019-03-30 12:23
 Розмір:   7.96 GB 
 Оцінка фільму:   10/10 (Голосів: 3)
   
Інші релізи
   Міс Поттер / Miss Potter (2006) Ukr/Eng | sub Ukr/Eng urij546724  2 / 0   1.42 GB   2011-01-12 11:31 
mv26 
Новенький


З нами з: 11.09.13
Востаннє: 20.04.19
Повідомлень: 13

2019-04-06 00:42  
Дуже гарний фільм - можна дивитися всією сім'єю, дякую!
Ваш часовий пояс: GMT + 2 Години

Нова тема   Відповісти