Вибух / Blast (1997) 1080p Ukr/Eng

Нові коментарі

Нова тема   Відповісти
Автор Повідомлення
Anonymous 







2019-03-29 21:41  
Вибух / Blast (1997) 1080p Ukr/Eng

Вибух / Blast (1997) 1080p Ukr/Eng


Жанр: бойовик
Країна: США



Кінокомпанія: Cruel Stories Inc., Filmwerks
Режисер: Albert Pyun
Актори: Лінден Ешбі, Рутґер Гауер, Ендрю Дівофф, Кімберлі Ворен, Тім Томерсон та інші

Сюжет:
Під час олімпійських ігор в Атланті терористи захоплюють плавальний комплекс і мінують багато інших об'єктів. У плавальному комплексі випадково опиняється колишній чемпіон з бойових мистецтв, який отримав у свій час травму, і марнуючи життя на алкоголь він втрачає дружину (тренера з плавання) і знаходить роботу прибиральника, щоб хоч якось триматись на плаву. Найдосвідченіший агент Інтерполу Лео інструктує каратиста, який ще не забув всіх своїх навичок, як потрібно правильно поводитися в різних ситуаціях. Допомагає йому і відмінне знання супротивника.


Тривалість: 01:39:12
Якість:
Відео:
кодек:
розмір кадру: 1920 х 1080
бітрейт: 8 812 кб/с

Аудіо # 1:
мова: українська
переклад: двоголосий закадровий
кодек: 2.0
бітрейт: 192 кб/с

Аудіо # 2:
мова: англійська
переклад: оригінал
кодек: 2.0
бітрейт: 640 кб/с
Info
General
Unique ID : 65797750383601880653352248278108181699 (0x31802F8EDDA703EB54869AD8227594C3)
Complete name : G:\HD Films\Blast (1997) 1080p [ukr.eng] Hurtom.
Format :
Format version : Version 4
File size : 6.68 GiB
Duration : 1 h 39 min
Overall bit rate : 9 639 kb/s
Encoded date : UTC 2019-03-29 19:20:38
Writing application : v32.0.0 ('Astral Progressions') 64-bit
Writing library : libebml v1.3.7 + v1.5.0

Video
ID : 1
Format : AVC
Format/Info : Advanced Video Codec
Format profile : [email protected]
Format settings : CABAC / 4 Ref Frames
Format settings, CABAC : Yes
Format settings, ReFrames : 4 frames
Codec ID : V_MPEG4/ISO/AVC
Duration : 1 h 39 min
Bit rate : 8 812 kb/s
Width : 1 920 pixels
Height : 1 080 pixels
Display aspect ratio : 16:9
Frame rate mode : Constant
Frame rate : 23.976 (24000/1001) FPS
Color space : YUV
Chroma subsampling : 4:2:0
Bit depth : 8 bits
Scan type : Progressive
Bits/(Pixel*Frame) : 0.177
Stream size : 6.10 GiB (91%)
Writing library : core 148 r2579 73ae2d1
Encoding settings : cabac=1 / ref=4 / deblock=1:0:0 / analyse=0x3:0x113 / me=umh / subme=8 / psy=1 / psy_rd=1.00:0.00 / mixed_ref=1 / me_range=16 / chroma_me=1 / trellis=1 / 8x8dct=1 / cqm=0 / deadzone=21,11 / fast_pskip=0 / chroma_qp_offset=-2 / threads=18 / lookahead_threads=3 / sliced_threads=0 / nr=0 / decimate=1 / interlaced=0 / bluray_compat=0 / constrained_intra=0 / bframes=3 / b_pyramid=2 / b_adapt=2 / b_bias=0 / direct=3 / weightb=1 / open_gop=0 / weightp=2 / keyint=250 / keyint_min=23 / scenecut=40 / intra_refresh=0 / rc_lookahead=50 / rc=2pass / mbtree=1 / bitrate=8812 / ratetol=1.0 / qcomp=0.60 / qpmin=0 / qpmax=69 / qpstep=4 / cplxblur=20.0 / qblur=0.5 / ip_ratio=1.40 / aq=1:1.00
Language : English
Default : Yes
Forced : No

Audio #1
ID : 2
Format : AC-3
Format/Info : Audio Coding 3
Commercial name : Dolby Digital
Codec ID : A_AC3
Duration : 1 h 39 min
Bit rate mode : Constant
Bit rate : 192 kb/s
Channel(s) : 2 channels
Channel layout : L R
Sampling rate : 48.0 kHz
Frame rate : 31.250 FPS (1536 SPF)
Bit depth : 16 bits
Compression mode : Lossy
Stream size : 136 MiB (2%)
Title : TBi channel (DVO)
Language : Ukrainian
Service kind : Complete Main
Default : Yes
Forced : No

Audio #2
ID : 3
Format : AC-3
Format/Info : Audio Coding 3
Commercial name : Dolby Digital
Codec ID : A_AC3
Duration : 1 h 39 min
Bit rate mode : Constant
Bit rate : 640 kb/s
Channel(s) : 2 channels
Channel layout : L R
Sampling rate : 48.0 kHz
Frame rate : 31.250 FPS (1536 SPF)
Bit depth : 16 bits
Compression mode : Lossy
Stream size : 454 MiB (7%)
Language : English
Service kind : Complete Main
Default : No
Forced : No

Menu
00:00:00.000 : en:00:00:00.000
00:09:19.434 : en:00:09:19.434
00:23:41.587 : en:00:23:41.587
00:36:58.842 : en:00:36:58.842
00:51:01.308 : en:00:51:01.308
01:05:12.867 : en:01:05:12.867
01:19:17.002 : en:01:19:17.002
01:30:34.596 : en:01:30:34.596
Скріншоти












Джерело: &


Срібний реліз (на рейтинг впливає 50% завантаженого)
 Трекер:    Зареєстрований   

Завантажити / скачати фільм українською



відео для новачків



 Зареєстрований:   2019-03-29 21:41
 Розмір:   6.68 GB 
 Оцінка фільму:   10/10 (Голосів: 1)
   
pvm65 
Свій


З нами з: 02.01.16
Востаннє: 14.11.19
Повідомлень: 105

2019-04-01 00:43  
звикши ???
знайшов роботу прибиральником ???

Ваш часовий пояс: GMT + 2 Години

Нова тема   Відповісти