Медовий місяць Камілли / Camille (2008) 1080p Ukr/Eng | Sub Ukr/Eng

Нові коментарі

Нова тема   Відповісти
Автор Повідомлення
підпільник 
VIP


З нами з: 11.04.12
Востаннє: 05.12.19
Повідомлень: 324

2019-03-29 20:33  
Медовий місяць Камілли / Camille (2008) 1080p Ukr/Eng | Sub Ukr/Eng


Медовий місяць Камілли / Camille (2008) 1080p Ukr/Eng | Sub Ukr/Eng
або без витребеньок

Медовий місяць Камілли / Camille (2008) 1080p Ukr/Eng | Sub Ukr/Eng
альтернативний постер
Медовий місяць Камілли / Camille (2008) 1080p Ukr/Eng | Sub Ukr/Eng
Жанр: мелодрама, романтичний, містика, пригоди
Країна: Велика Британія



Кінокомпанія: A-Mark Entertainment, Camille Productions, Golconda Films
Режисер: Грегорі МакКензі (Gregory Mackenzie)
Актори: Сієнна Міллер (Sienna Miller), Джеймс Франко (James Franco), Девід Керрадайн (David Carradine), Скотт Гленн (Scott Glenn),
Ед Лотер (Ed Lauter), Марк Уілсон (Mark Wilson), Патриція Йетмен (Patricia Yeatman), Стів Маркофф (Steve Markoff), Тайлер Хайнс (Tyler Hynes),
Мімі Кузик (Mimi Kuzyk), Джеймс Б. Дуглас (James B. Douglas), Джордж Бьюзі (George Buza), Лііса Репо-Мартелл (Liisa Repo-Martell),
Ніколас Каегі (Nicholas Kaegi), Джей. Адам Браун (J. Adam Brown), Шаррон Метьюз (Sharron Matthews), Паула Бадьоро (Paula Boudreau),
Білл Лейк (Bill Lake), Моніка Доттер (Monica Dotter), Лоурен Еш (Lauren Ash), Пол Бейтс (Paul Bates), Шеннон МакДонаф (Shannon McDonough),
Джефф МакІнері (Jeff McEnery), Майк Шир (Mike Sheer), Джон Уотсон (John Watson), Метт Сміт (Matt Smith), Сенді Джобін-Біванс (Sandy Jobin-Bevans),
Стен Еірік (Sten Eirik), Ейвері Бісбі (Avery Bisbee), Олександра Рудді (Alexandra Ruddy), Джованні Кірфіра (Giovanni Cirfiera), Ендрю Фостер (Andrew Foster)

Сюжет:
Що може бути романтичніше медового місяця на Ніагарі? Але для Сіліаса і Камілли це буде незвичайна подорож. Силіас - дрібний шахрай,
він одружується з племінницею шерифа, тільки щоб не потрапити у в'язницю. Але закохана Камілла вірить, що її почуття змінять обранця.
І ніщо не перешкодить збутися її мрії про медовий місяць, навіть власна смерть ...


.
трохи про все

Розповідь про, в принципі, двох канонічних ідіотів. Просто еталонно найпоширеніших, але варто в кожному з них завестись хоч чомусь
справжньому - і це одне щось може перетягнуть на свій бік всю особистість.

Листав якось зкачене кінцо. листь-листь, гидота, наступне. листь-листь, гидота, наступне, листь-листь, гидота, листь-листь, ну точно гидота,
правда вона тут грає. листь, да нє, пристойно так грає. ну не можеж буть парнографією кінцо де так грають! (еталонна парнографія)
ну перелистав на початок, глянув, і все. зачепило. і так!...... да. за душу пощипало. а я таке памʼятаю завжди.

тут треба було відновить в каналі. шукав де зкачать. скрізь тільки сліди. і сліди пережованної гавняної якості. хто 30% роздасть хто 50 і все.
значить цей фільм скрізь зникає. а тут відкриваю в ранці - лежить зкачений, жде. да ще такий шикарний.
все. це я вношу в золотий фонд і фіксую.

цей фільм я буду роздавать: і в горі і в радості, допоки нещасний випадок не розлучить нас.

.

Тривалість: 01:30:59.04
Якість: 1080p

Відео:
кодек:
розмір кадру: 1920 х 1080
бітрейт: 16,1 Мб/с

Аудіо # 1:
мова: українська
переклад: багатоголосий закадровий
кодек: 5.1
бітрейт: 384 кб/с
Джерело озвучення:

Аудіо # 2:
мова: англійська
переклад: оригінал
кодек: 5.1
бітрейт: 1509 кб/с

Субтитри:
мова: українська
тип: програмні (м'які)
формат: *.srt

Субтитри:
мова: англійська
тип: програмні (м'які)
формат: *.srt
Info

Код:

General

Complete name                            : /home/підпільник/монтаж/Camille/Camille (2008) 1080p H.265 2xUkr⁄Eng | Sub Ukr⁄Eng.
Format                                   :
Format version                           : Version 4 / Version 2
File size                                : 11.4 GiB
Duration                                 : 1 h 30 min
Overall bit rate                         : 18.0 Mb/s
Movie name                               : Camille (2008) 1000p Hurtom
Encoded date                             : UTC 2019-04-06 08:01:37
Writing application                      : v32.0.0 ('Astral Progressions') 64-bit
Writing library                          : libebml v1.3.7 + v1.5.0

Video
ID                                       : 1
Format                                   : AVC
Format/Info                              : Advanced Video Codec
Format profile                           : [email protected]
Format settings, CABAC                   : Yes
Format settings, ReFrames                : 4 frames
Codec ID                                 : V_MPEG4/ISO/AVC
Duration                                 : 1 h 30 min
Bit rate                                 : 16.1 Mb/s
Width                                    : 1 920 pixels
Height                                   : 1 080 pixels
Display aspect ratio                     : 16:9
Frame rate mode                          : Constant
Frame rate                               : 23.976 (24000/1001) FPS
Color space                              : YUV
Chroma subsampling                       : 4:2:0
Bit depth                                : 8 bits
Scan type                                : Progressive
Bits/(Pixel*Frame)                       : 0.323
Stream size                              : 10.2 GiB (89%)
Writing library                          : core 146 r2538 121396c
Encoding settings                        : cabac=1 / ref=4 / deblock=1:-3:-2 / analyse=0x3:0x113 / me=umh / subme=11 / psy=1 / psy_rd=1.00:0.15 / mixed_ref=1 / me_range=32 / chroma_me=1 / trellis=2 / 8x8dct=1 / cqm=0 / deadzone=21,11 / fast_pskip=0 / chroma_qp_offset=-3 / threads=6 / lookahead_threads=1 / sliced_threads=0 / nr=0 / decimate=1 / interlaced=0 / bluray_compat=0 / constrained_intra=0 / bframes=9 / b_pyramid=2 / b_adapt=2 / b_bias=0 / direct=1 / weightb=1 / open_gop=0 / weightp=2 / keyint=230 / keyint_min=23 / scenecut=40 / intra_refresh=0 / rc_lookahead=40 / rc=crf / mbtree=0 / crf=18.4 / qcomp=0.60 / qpmin=0 / qpmax=69 / qpstep=4 / vbv_maxrate=62500 / vbv_bufsize=78125 / crf_max=0.0 / nal_hrd=none / filler=0 / ip_ratio=1.40 / pb_ratio=1.30 / aq=1:1.00
Language                                 : English
Default                                  : Yes
Forced                                   : No

Audio #1
ID                                       : 2
Format                                   : AC-3
Format/Info                              : Audio Coding 3
Mode extension                           : CM (complete main)
Format settings, Endianness              : Big
Codec ID                                 : A_AC3
Duration                                 : 1 h 30 min
Bit rate mode                            : Constant
Bit rate                                 : 384 kb/s
Channel(s)                               : 6 channels
Channel positions                        : Front: L C R, Side: L R, LFE
Sampling rate                            : 48.0 kHz
Frame rate                               : 31.250 FPS (1536 spf)
Bit depth                                : 16 bits
Compression mode                         : Lossy
Delay relative to video                  : 70 ms
Stream size                              : 250 MiB (2%)
Title                                    : Українська
Language                                 : Ukrainian
Default                                  : Yes
Forced                                   : No

Audio #2
ID                                       : 3
Format                                   :
Format/Info                              : Digital Theater Systems
Mode                                     : 16
Format settings, Endianness              : Big
Codec ID                                 : A_DTS
Duration                                 : 1 h 30 min
Bit rate mode                            : Constant
Bit rate                                 : 1 509 kb/s
Channel(s)                               : 6 channels
Channel positions                        : Front: L C R, Side: L R, LFE
Sampling rate                            : 48.0 kHz
Frame rate                               : 93.750 FPS (512 spf)
Bit depth                                : 16 bits
Compression mode                         : Lossy
Stream size                              : 982 MiB (8%)
Title                                    : original
Language                                 : English
Default                                  : No
Forced                                   : No

Text #1
ID                                       : 4
Format                                   : UTF-8
Codec ID                                 : S_TEXT/UTF8
Codec ID/Info                            : UTF-8 Plain Text
Duration                                 : 1 h 23 min
Bit rate                                 : 64 b/s
Count of elements                        : 1045
Stream size                              : 39.8 KiB (0%)
Language                                 : Ukrainian
Default                                  : Yes
Forced                                   : No

Text #2
ID                                       : 5
Format                                   : UTF-8
Codec ID                                 : S_TEXT/UTF8
Codec ID/Info                            : UTF-8 Plain Text
Duration                                 : 1 h 19 min
Bit rate                                 : 50 b/s
Count of elements                        : 1021
Stream size                              : 29.4 KiB (0%)
Language                                 : English
Default                                  : No
Forced                                   : No

Скріншоти





тест

Подяка авторам релізу-першоджерела звуку та субтитрів: п.aaazzz, urij5467241, MAKAPOHHIK

Джерело: &
Особиста оцінка: бомба! - давно не бачив настільки якісне кіно

якщо в когось будуть ще якісь озвучки, відмінні від цієї, давайте, додам.


 Трекер:    Зареєстрований   

Завантажити / скачати фільм українською



відео для новачків



 Зареєстрований:   2019-04-08 07:57
 Розмір:   11.43 GB 
 Оцінка фільму:   6.6/10 (Голосів: 7)
   
Інші релізи
підпільник 
VIP


З нами з: 11.04.12
Востаннє: 05.12.19
Повідомлень: 324

2019-04-08 06:56  
тестив під маздаєм. зкопіював, ребутнувся, а відкрить не можу. плеєр каже ʼʼзанадто довга назваʼʼ. браузером відкривав - каже файл не знайдено.
видалить не можу, переіменувать не дає. власником ставав. (і як тільки не ставав)
перезавантажився, зкопіював в друге. назву цифрами і без розширень. відкрилось, саби читаюцця. х/з чьо було.
першим качаючим - півтори доби при хорошій погоді. далі буде лекше.

igor911 
Модератор відео


З нами з: 18.01.08
Востаннє: 05.12.19
Повідомлень: 13711

2019-04-08 07:23  
підпільник написано:
H.265

MI написано:
Format/Info : Advanced Video Codec
Writing library : core 146 r2538 121396c

це , виправ заголовки

підпільник написано:
занадто довга назва

є таке у вінді - загальний шлях зі всіма вкладеними папками має бути десь до 250 символів, якщо більше - починаються отакі "чудеса".

підпільник 
VIP


З нами з: 11.04.12
Востаннє: 05.12.19
Повідомлень: 324

2019-04-08 07:35  
блін! як я міг так недодивитись!!
підпільник 
VIP


З нами з: 11.04.12
Востаннє: 05.12.19
Повідомлень: 324

2019-04-09 06:02  
кахи!
виносицця офіційна подяка з занесенням wwwombat за те шо взяв на зберігання Каміллу.
за мной должок.

waldi-hurtom 
VIP


З нами з: 07.10.12
Востаннє: 05.12.19
Повідомлень: 1052

2019-04-10 19:10  
Не в'їхав! Сам дивуюсь - як додивився. Як оберуть Зе - проситиму в нього зірку героя України за це!
P.S, А мастдаю дайте спокійно померти - після того як з'явився Linux Mint 19.1 “Tessa” Cinnamon - не ганьбіться, панове! Ставте і буде вам щастя та насолода. Найбільша проблема - перенести архів торента (якщо він великий) до qBittorrent-у.
P.P.S А файл, можливо, таки битий. Довго не міг його видалити, тричі машину перезавантажував.

hetzendorf 
Попереджень: 2
Попереджень: 2 


З нами з: 23.07.15
Востаннє: 05.12.19
Повідомлень: 2581

2019-04-11 11:47  
waldi-hurtom написано:
Найбільша проблема - перенести архів торента (якщо він великий) до qBittorrent-у.

.torrent файли підходять будь-якому клієнту. Якщо всі дані в одній директорії — взагалі проблем ніяких, ні — то вручну доведеться налаштовувати шляхи не за замовчанням. А, ще після маздаю з правами доступу файлів/директорій слід бути уважним.

waldi-hurtom 
VIP


З нами з: 07.10.12
Востаннє: 05.12.19
Повідомлень: 1052

2019-04-11 12:22  
hetzendorf
Це ж яка сміттярка буде, якщо усе лежатиме в одній директорії! Є фільми, є опера, є просто музика, така і сяка, є директорії по режисерах, книжки... Я ж кажу якщо торентів БАГАТО. Happy Так що в мене багато дрібноти вмерло для роздачи. Як переїзд на іншу квартиру.

підпільник 
VIP


З нами з: 11.04.12
Востаннє: 05.12.19
Повідомлень: 324

2019-04-11 12:35  
в одній директорії декілька каталогів. а в них по черзі складаєш. спершу кладеш друковану в один, потім переходиш до фільмів
і підряд все кладеш в другий

Siegfried 
VIP


З нами з: 01.11.11
Востаннє: 05.12.19
Повідомлень: 285

2019-04-13 15:05  
Терпіння вистачило хвилин на 20...
Абсолютно невдалий мертвонароджений "хвільм".
Єдиний цікавий момент: копія німецького BMW R75 - мотоцикл МТ нині мертвого Київського мотоциклетного заводу.

З натягом 2/10.

Ваш часовий пояс: GMT + 2 Години

Нова тема   Відповісти