Останній танець / One Last Dance (2003) 720p 2xUkr/Eng

Нові коментарі

Нова тема   Відповісти
Автор Повідомлення
Anonymous 







2019-03-29 20:08  
Останній танець / One Last Dance (2003) 720p 2xUkr/Eng

Останній танець / One Last Dance (2003) 720p 2xUkr/Eng


Жанр: драма, романтичний
Країна: Канада



Кінокомпанія: Without Word Inc.
Режисер: Лайза Неймі
Актори: Патрік Свейзі, Лайза Неймі, Джордж Де Ла Пена, Тімоті Веббер, Марі Стіллін, Меттью Волкер, Стефан Вента

Сюжет:
Після смерті маестро елітної танцювальної трупи напередодні світової прем'єри на допомогу артистам приходять їх колишні колеги Тревіс, Крісса і Макс. Сцена не пробачає помилок, але вони вирішують ризикнути, поставивши унікальну композицію, роботу яку їм довелося перервати 7 років тому.

Життя дало зіркам нову можливість втілити свої минулі мрії, але для Тревіса й Крісси це також рідкісний шанс воскресити свою пристрасну любов. Тепер, щоб добитися успіху, їм доведеться згадати ази майстерності і яскраві почуття, які одного разу круто змінили їхнє життя. Чи зможуть вони знайти у своєму серці вірний ритм, який приведе їх до тріумфу?


Тривалість: 01:36:26
Якість: 720p

Відео:
кодек:
розмір кадру: 1280 х 686
бітрейт: 5200 кб/с

Аудіо # 1:
мова: українська
переклад: багатоголосий закадровий
кодек: 2.0
бітрейт: 192 кб/с

Аудіо # 2:
мова: українська
переклад: двоголосий закадровий
кодек: 5.1
бітрейт: 384 кб/с

Аудіо # 3:
мова: англійська
переклад: оригінал
кодек: 5.1
бітрейт: 448 кб/с
Info
General
Unique ID : 17028592060118520190820879124038452664 (0xCCF9668C1447603EB972323D71085B8)
Complete name : G:\HD Films\One Last Dance (2003) 720p [2xukr.eng] Hurtom.
Format :
Format version : Version 4
File size : 4.19 GiB
Duration : 1 h 36 min
Overall bit rate : 6 226 kb/s
Movie name : One.Last.Dance.2003.720p.
Encoded date : UTC 2019-03-29 16:30:23
Writing application : v32.0.0 ('Astral Progressions') 64-bit
Writing library : libebml v1.3.7 + v1.5.0

Video
ID : 1
Format : AVC
Format/Info : Advanced Video Codec
Format profile : [email protected]
Format settings : CABAC / 8 Ref Frames
Format settings, CABAC : Yes
Format settings, ReFrames : 8 frames
Codec ID : V_MPEG4/ISO/AVC
Duration : 1 h 36 min
Bit rate : 5 200 kb/s
Width : 1 280 pixels
Height : 686 pixels
Display aspect ratio : 1.85:1
Frame rate mode : Constant
Frame rate : 25.000 FPS
Color space : YUV
Chroma subsampling : 4:2:0
Bit depth : 8 bits
Scan type : Progressive
Bits/(Pixel*Frame) : 0.237
Stream size : 3.50 GiB (84%)
Title : One.Last.Dance.2003.720p.
Writing library : core 130 r2273 b3065e6
Encoding settings : cabac=1 / ref=8 / deblock=1:-3:-3 / analyse=0x3:0x133 / me=umh / subme=10 / psy=1 / psy_rd=1.00:0.00 / mixed_ref=1 / me_range=32 / chroma_me=1 / trellis=2 / 8x8dct=1 / cqm=0 / deadzone=21,11 / fast_pskip=1 / chroma_qp_offset=-2 / threads=12 / lookahead_threads=1 / sliced_threads=0 / nr=0 / decimate=1 / interlaced=0 / bluray_compat=0 / constrained_intra=0 / bframes=3 / b_pyramid=2 / b_adapt=2 / b_bias=0 / direct=3 / weightb=1 / open_gop=0 / weightp=2 / keyint=250 / keyint_min=25 / scenecut=40 / intra_refresh=0 / rc_lookahead=60 / rc=2pass / mbtree=1 / bitrate=5200 / ratetol=1.0 / qcomp=0.60 / qpmin=10 / qpmax=51 / qpstep=4 / cplxblur=20.0 / qblur=0.5 / vbv_maxrate=40000 / vbv_bufsize=40000 / nal_hrd=none / ip_ratio=1.40 / aq=1:1.00
Language : English
Default : Yes
Forced : No

Audio #1
ID : 2
Format : AC-3
Format/Info : Audio Coding 3
Commercial name : Dolby Digital
Codec ID : A_AC3
Duration : 1 h 36 min
Bit rate mode : Constant
Bit rate : 192 kb/s
Channel(s) : 2 channels
Channel layout : L R
Sampling rate : 48.0 kHz
Frame rate : 31.250 FPS (1536 SPF)
Bit depth : 16 bits
Compression mode : Lossy
Stream size : 132 MiB (3%)
Title : K1 channel (MVO)
Language : Ukrainian
Service kind : Complete Main
Default : Yes
Forced : No

Audio #2
ID : 3
Format : AC-3
Format/Info : Audio Coding 3
Commercial name : Dolby Digital
Codec ID : A_AC3
Duration : 1 h 36 min
Bit rate mode : Constant
Bit rate : 384 kb/s
Channel(s) : 6 channels
Channel layout : L R C LFE Ls Rs
Sampling rate : 48.0 kHz
Frame rate : 31.250 FPS (1536 SPF)
Bit depth : 16 bits
Compression mode : Lossy
Stream size : 265 MiB (6%)
Title : KRT, 2+2 channel (DVO)
Language : Ukrainian
Service kind : Complete Main
Default : No
Forced : No

Audio #3
ID : 4
Format : AC-3
Format/Info : Audio Coding 3
Commercial name : Dolby Digital
Codec ID : A_AC3
Duration : 1 h 36 min
Bit rate mode : Constant
Bit rate : 448 kb/s
Channel(s) : 6 channels
Channel layout : L R C LFE Ls Rs
Sampling rate : 48.0 kHz
Frame rate : 31.250 FPS (1536 SPF)
Bit depth : 16 bits
Compression mode : Lossy
Stream size : 309 MiB (7%)
Title : Original
Language : English
Service kind : Complete Main
Default : No
Forced : No

Menu
00:00:00.000 : en:00:00:00.000
00:08:03.920 : en:00:08:03.920
00:19:15.520 : en:00:19:15.520
00:27:18.360 : en:00:27:18.360
00:34:48.880 : en:00:34:48.880
00:44:06.680 : en:00:44:06.680
00:49:33.080 : en:00:49:33.080
00:54:11.240 : en:00:54:11.240
01:03:48.240 : en:01:03:48.240
01:10:57.880 : en:01:10:57.880
01:21:27.680 : en:01:21:27.680
01:30:54.400 : en:01:30:54.400
Скріншоти










Друга українська доріжка : karvai0, rooster
Постер: UaBboyAtom

Джерело: &


Срібний реліз (на рейтинг впливає 50% завантаженого)
 Трекер:    Зареєстрований   

Завантажити / скачати фільм українською



відео для новачків



 Зареєстрований:   2019-03-29 20:08
 Розмір:   4.19 GB 
 Оцінка фільму:   10/10 (Голосів: 1)
   
Інші релізи
   Останній танок / One Last Dance (2003) Ukr/Eng rooster  2 / 0   2.18 GB   2011-03-02 23:06 
Ваш часовий пояс: GMT + 2 Години

Нова тема   Відповісти