Людина-мураха та Оса / Ant-Man and the Wasp (2018) UHD Remux 2160p 4K HDR H.265 Ukr/Eng | Sub Eng

Нові коментарі

Нова тема   Відповісти
Автор Повідомлення
Argentum 
VIP


З нами з: 25.09.11
Востаннє: 27.09.20
Повідомлень: 259

2019-03-29 15:12  
Людина-мураха та Оса / Ant-Man and the Wasp (2018) UHD Remux 2160p 4K HDR H.265 Ukr/Eng | Sub Eng

Людина-мураха та Оса / Ant-Man and the Wasp (2018) UHD Remux 2160p 4K HDR H.265 Ukr/Eng | Sub Eng


Жанр: бойовик, фантастика, пригодницький, екшн
Країна: США



Кінокомпанія: Marvel Studios
Режисер: Пейтон Рід
Актори: Пол Радд, Еванджелін Ліллі, Майкл Дуглас, Майкл Пенья, Волтон Гоггінс, Ганна Джон-Кеймен, Лоуренс Фішберн, Мішель Пфайффер та інші.

Сюжет:
Кіновсесвіту Marvel представляє нову главу про супергероїв з дивовижною здатністю зменшуватися: Людину-мураху і Осу. Після подій «Першого месника: Протистояння» Скотт Ленг стикається з наслідками свого вибору в якості супергероя і як батька. Поки він намагається знайти баланс між сімейним життям і своїми обов'язками Людини-мурахи, Хоуп ван Дайн і доктор Хенк Пім відправляють його в строкову місію. Скотт повинен знову надіти костюм і боротися пліч-о-пліч з Осою, поки команда розкриває секрети свого минулого.


Тривалість: 01:58:09
Якість: UHD Remux 2160p 4K
Відео:
кодек: H.265 (HEVC)
розмір кадру: 3840 х 2160
бітрейт: 43.9 Мб/с
бітова глибина: 10 біт
кольоровий простір: BT.2020 (HDR)

Увага! Перед завантаженням переконайтесь, що ваш пристрій відтворення (та/або ПЗ) підтримує H.265 (HEVC)

Аудіо # 1:
мова: українська
переклад: професійний дубльований | студія LeDoyen
кодек: -HD MA 5.1
бітрейт: 3677 кб/с
Інформація про дубляж

Скотт Ленґ / Людина-Мураха - Андрій Твердак
Хоуп Ван Дайн/Оса - Світлана Шекера
Луїс - Назар Задніпровський
Хенк Пім - Владислав Пупков
Білл Фостер - Євген Сінчуков
Санні Берч - Олександр Форманчук
Джиммі Ву - Акмал Гурєзов
Джанет Ван Дайн - Тамара Морозова
Кессі Ленґ - Любава Берло
Ава / Яга - Катерина Качан
Меґґі - Інна БЕЛІКОВА
Дейв - Роман Молодій
Курт - Дмитро Чернов
Пекстон - Олексій Череватенко
Стен Лі - Юрій Висоцький

Режисер дубляжу - Анна Пащенко
Перекладач - Олег Колесніков
Аудіо # 2:
мова: українська
переклад: професійний дубльований
кодек: 5.1
бітрейт: 640 кб/с

Аудіо # 3:
мова: англійська
переклад: оригінал
кодек: 5.1
бітрейт: 1509 кб/с

Субтитри: (форсовані)
мова: українська
тип: програмні (м'які)
формат: *.srt

Субтитри:
мова: англійська
тип: програмні (м'які)
формат: *.srt
Info
General
Unique ID : 94329836421045060099947885541314929634 (0x46F744026012F3DD97AB355C6FFA23E2)
Complete name : Ant-Man and the Wasp (2018) [Ukr, Eng] Remux HDR 2160p [Hurtom].
Format :
Format version : Version 4
File size : 41.1 GiB
Duration : 1 h 58 min
Overall bit rate mode : Variable
Overall bit rate : 49.7 Mb/s
Movie name : Ant-Man and the Wasp (2018) [Ukr, Eng] Remux HDR 2160p
Encoded date : UTC 2019-03-23 13:52:20
Writing application : v32.0.0 ('Astral Progressions') 64-bit
Writing library : libebml v1.3.7 + v1.5.0
Attachments : AMandWasp.jpg

Video
ID : 1
Format : HEVC
Format/Info : High Efficiency Video Coding
Format profile : Main [email protected]@High
HDR format : SMPTE ST 2086, HDR10 compatible
Codec ID : V_MPEGH/ISO/HEVC
Duration : 1 h 58 min
Bit rate : 43.9 Mb/s
Width : 3 840 pixels
Height : 2 160 pixels
Display aspect ratio : 16:9
Frame rate mode : Constant
Frame rate : 23.976 (24000/1001) FPS
Color space : YUV
Chroma subsampling : 4:2:0 (Type 2)
Bit depth : 10 bits
Bits/(Pixel*Frame) : 0.221
Stream size : 36.2 GiB (88%)
Title : HEVC 3840*2160 HDR10 @ 43.9 Mbps
Writing library : ATEME Titan File 3.8.16 (4.8.16.0)
Language : Multiple languages
Default : Yes
Forced : Yes
Color range : Limited
Color primaries : BT.2020
Transfer characteristics : PQ
Matrix coefficients : BT.2020 non-constant
Mastering display color pri : Display P3
Mastering display luminance : min: 0.0001 cd/m2, max: 1000 cd/m2

Audio #1
ID : 2
Format : XLL
Format/Info : Digital Theater Systems
Commercial name : -HD Master Audio
Codec ID : A_DTS
Duration : 1 h 58 min
Bit rate mode : Variable
Bit rate : 3 677 kb/s
Channel(s) : 6 channels
Channel layout : C L R Ls Rs LFE
Sampling rate : 48.0 kHz
Frame rate : 93.750 FPS (512 SPF)
Bit depth : 24 bits
Compression mode : Lossless
Stream size : 3.03 GiB (7%)
Title : -HD MA 5.1 @ 3677 Kbps
Language : Ukrainian
Default : Yes
Forced : Yes

Audio #2
ID : 3
Format : AC-3
Format/Info : Audio Coding 3
Commercial name : Dolby Digital
Codec ID : A_AC3
Duration : 1 h 58 min
Bit rate mode : Constant
Bit rate : 640 kb/s
Channel(s) : 6 channels
Channel layout : L R C LFE Ls Rs
Sampling rate : 48.0 kHz
Frame rate : 31.250 FPS (1536 SPF)
Bit depth : 16 bits
Compression mode : Lossy
Stream size : 541 MiB (1%)
Title : 5.1 @ 640 Kbps
Language : Ukrainian
Service kind : Complete Main
Default : No
Forced : No

Audio #3
ID : 4
Format :
Format/Info : Digital Theater Systems
Codec ID : A_DTS
Duration : 1 h 58 min
Bit rate mode : Constant
Bit rate : 1 509 kb/s
Channel(s) : 6 channels
Channel layout : C L R Ls Rs LFE
Sampling rate : 48.0 kHz
Frame rate : 93.750 FPS (512 SPF)
Bit depth : 24 bits
Compression mode : Lossy
Stream size : 1.24 GiB (3%)
Title : 5.1 @ 1509 Kbps
Language : English
Default : No
Forced : No

Text #1
ID : 5
Format : UTF-8
Codec ID : S_TEXT/UTF8
Codec ID/Info : UTF-8 Plain Text
Duration : 1 h 54 min
Bit rate : 1 b/s
Count of elements : 21
Stream size : 1.29 KiB (0%)
Title : Forced
Language : Ukrainian
Default : Yes
Forced : Yes

Text #2
ID : 6
Format : UTF-8
Codec ID : S_TEXT/UTF8
Codec ID/Info : UTF-8 Plain Text
Duration : 1 h 57 min
Bit rate : 68 b/s
Count of elements : 2136
Stream size : 59.2 KiB (0%)
Language : English
Default : No
Forced : No

Menu
00:00:00.000 : en:00:00:00.000
00:04:03.034 : en:00:04:03.034
00:10:16.407 : en:00:10:16.407
00:13:39.861 : en:00:13:39.861
00:21:25.451 : en:00:21:25.451
00:29:07.829 : en:00:29:07.829
00:36:09.084 : en:00:36:09.084
00:40:56.579 : en:00:40:56.579
00:50:17.431 : en:00:50:17.431
00:58:59.077 : en:00:58:59.077
01:04:56.434 : en:01:04:56.434
01:12:54.287 : en:01:12:54.287
01:18:32.124 : en:01:18:32.124
01:24:44.913 : en:01:24:44.913
01:29:47.340 : en:01:29:47.340
01:36:16.270 : en:01:36:16.270
01:43:35.334 : en:01:43:35.334
01:46:59.830 : en:01:46:59.830
Скріншоти







Джерело:

Подяка пану Electroz за українську доріжку та пану Hanway за синхронізацію звуку.

Особиста оцінка: 8 - мені сподобалося


Золотий реліз (завантажене не впливає на рейтинг)
 Трекер:    Зареєстрований   

Завантажити / скачати фільм українською



відео для новачків



 Зареєстрований:   2019-03-29 16:23
 Розмір:   41.06 GB 
 Оцінка фільму:   10/10 (Голосів: 12)
   
bot 
робот


З нами з: 30.09.07
Востаннє: 26.05.05
Повідомлень: 25633

2019-03-29 15:12  
Тему перенесено з Фільми в HD до форуму Анонси релізів


Argentum

bot 
робот


З нами з: 30.09.07
Востаннє: 26.05.05
Повідомлень: 25633

2019-03-29 16:22  
Тему перенесено з Анонси релізів до форуму Фільми в HD


Argentum

Ваш часовий пояс: GMT + 2 Години

Нова тема   Відповісти