Залізна людина / Iron Man (2008) UHD Remux 2160p 4K HDR H.265 Ukr/Eng | Sub Ukr/Eng

Нові коментарі

Нова тема   Відповісти
Автор Повідомлення
Argentum 
Поважний учасник


З нами з: 25.09.11
Востаннє: 13.10.19
Повідомлень: 213

2019-03-28 16:19  
Залізна людина / Iron Man (2008) UHD Remux 2160p 4K HDR H.265 Ukr/Eng | Sub Ukr/Eng

Залізна людина / Iron Man (2008) UHD Remux 2160p 4K HDR H.265 Ukr/Eng | Sub Ukr/Eng


Жанр: фантастика, екшн, пригодницький, бойовик
Країна: США



Кінокомпанія: Marvel Studios, Fairview Entertainment
Режисер: Джон Фавро
Актори: Роберт Дауні (молодший), Терренс Говард Дешон, Джефф Бріджес, Гвінет Пелтроу, Леслі Бібб, Шон Тоуб, Фаран Таїр, Сайед Бадрея, Білл Смітровіч, Кларк Грегг

Сюжет:
Мільярдер, плейбой, геніальний винахідник і голова корпорації «Старк Індастріз», що поставляє зброю в усі регіони світу, Тоні Старк відправляється в Афганістан особисто представити свою останню розробку - ракету «Єрихон». Потрапивши в полон до терористів групи «Десять кілець», він переглядає свої погляди на бізнес, вирішуючи спрямувати кошти на благодійність. Втікши з полону, він створює суперсучасний костюм з надміцних матеріалів, що дозволяє швидко наводити порядок у гарячих точках планети. Права рука Старка Обадайа Стерн не поділяє гуманістичних поривів боса, мріючи про створення солдатів-роботів нового покоління.


Тривалість: 02:06:22
Якість: UHD Remux 2160p 4K [US трансфер]
Відео:
кодек: H.265 (HEVC)
розмір кадру: 3840 х 2160
бітрейт: 54 Мб/с
бітова глибина: 10 біт
кольоровий простір: BT.2020 (HDR)

Увага! Перед завантаженням переконайтесь, що ваш пристрій відтворення (та/або ПЗ) підтримує H.265 (HEVC)

Аудіо # 1:
мова: українська
переклад: професійний дубльований | студія Postmodern
кодек: 5.1
бітрейт: 448 кб/с

Аудіо # 2:
мова: англійська
переклад: оригінал
кодек: 5.1
бітрейт: 1509 кб/с

Субтитри 1-2: (форсовані, повні)
мова: українська
тип: програмні (м'які)
формат: *.srt

Субтитри 3-4: (форсовані, повні)
мова: англійська
тип: програмні (м'які)
формат: *.srt
Info
General
Unique ID : 286665432671832596652299372860501071828 (0xD7A9C10B68C1333D7BAE4855C4BF17D4)
Complete name : Iron Man (2008) [UKR_ENG] Remux 2160p [Hurtom].
Format :
Format version : Version 4
File size : 49.3 GiB
Duration : 2 h 6 min
Overall bit rate : 56.0 Mb/s
Movie name : Iron Man (2008)
Encoded date : UTC 2019-09-30 10:04:00
Writing application : v37.0.0 ('Leave It') 64-bit
Writing library : libebml v1.3.9 + v1.5.2
Attachments : IronMan.jpg

Video
ID : 1
Format : HEVC
Format/Info : High Efficiency Video Coding
Format profile : Main [email protected]@High
HDR format : SMPTE ST 2086, HDR10 compatible
Codec ID : V_MPEGH/ISO/HEVC
Duration : 2 h 6 min
Bit rate : 54.0 Mb/s
Width : 3 840 pixels
Height : 2 160 pixels
Display aspect ratio : 16:9
Frame rate mode : Constant
Frame rate : 23.976 (24000/1001) FPS
Color space : YUV
Chroma subsampling : 4:2:0 (Type 2)
Bit depth : 10 bits
Bits/(Pixel*Frame) : 0.272
Stream size : 47.6 GiB (96%)
Title : HEVC 3840*2160 HDR10 @ 54.0 Mb/s
Language : Multiple languages
Default : Yes
Forced : Yes
Color range : Limited
Color primaries : BT.2020
Transfer characteristics : PQ
Matrix coefficients : BT.2020 non-constant
Mastering display color pri : Display P3
Mastering display luminance : min: 0.0050 cd/m2, max: 4000 cd/m2
Maximum Content Light Level : 826 cd/m2
Maximum Frame-Average Light : 819 cd/m2

Audio #1
ID : 2
Format : AC-3
Format/Info : Audio Coding 3
Commercial name : Dolby Digital
Codec ID : A_AC3
Duration : 2 h 6 min
Bit rate mode : Constant
Bit rate : 448 kb/s
Channel(s) : 6 channels
Channel layout : L R C LFE Ls Rs
Sampling rate : 48.0 kHz
Frame rate : 31.250 FPS (1536 SPF)
Bit depth : 16 bits
Compression mode : Lossy
Delay relative to video : -2 s 0 ms
Stream size : 404 MiB (1%)
Title : AC-3 5.1 @ 448 kb/s
Language : Ukrainian
Service kind : Complete Main
Default : Yes
Forced : Yes

Audio #2
ID : 3
Format :
Format/Info : Digital Theater Systems
Codec ID : A_DTS
Duration : 2 h 6 min
Bit rate mode : Constant
Bit rate : 1 536 kb/s
Channel(s) : 6 channels
Channel layout : C L R Ls Rs LFE
Sampling rate : 48.0 kHz
Frame rate : 93.750 FPS (512 SPF)
Bit depth : 16 bits
Compression mode : Lossy
Delay relative to video : -2 s 0 ms
Stream size : 1.35 GiB (3%)
Title : 5.1 @ 1 509 kb/s
Language : English
Default : No
Forced : No

Text #1
ID : 4
Format : UTF-8
Codec ID : S_TEXT/UTF8
Codec ID/Info : UTF-8 Plain Text
Duration : 1 h 49 min
Bit rate : 2 b/s
Count of elements : 46
Stream size : 2.02 KiB (0%)
Title : Forced
Language : Ukrainian
Default : Yes
Forced : Yes

Text #2
ID : 5
Format : UTF-8
Codec ID : S_TEXT/UTF8
Codec ID/Info : UTF-8 Plain Text
Duration : 2 h 4 min
Bit rate : 96 b/s
Count of elements : 1345
Stream size : 88.5 KiB (0%)
Title : Full
Language : Ukrainian
Default : No
Forced : No

Text #3
ID : 6
Format : UTF-8
Codec ID : S_TEXT/UTF8
Codec ID/Info : UTF-8 Plain Text
Duration : 1 h 3 min
Bit rate : 1 b/s
Count of elements : 37
Stream size : 752 Bytes (0%)
Title : Forced
Language : English
Default : No
Forced : No

Text #4
ID : 7
Format : UTF-8
Codec ID : S_TEXT/UTF8
Codec ID/Info : UTF-8 Plain Text
Duration : 2 h 4 min
Bit rate : 59 b/s
Count of elements : 1339
Stream size : 53.8 KiB (0%)
Title : Full
Language : English
Default : No
Forced : No

Menu
00:00:00.000 : en:Chapter 01
00:09:04.168 : en:Chapter 02
00:17:58.327 : en:Chapter 03
00:26:47.939 : en:Chapter 04
00:34:59.806 : en:Chapter 05
00:43:13.257 : en:Chapter 06
00:52:36.361 : en:Chapter 07
00:59:22.642 : en:Chapter 08
01:07:30.212 : en:Chapter 09
01:11:41.964 : en:Chapter 10
01:18:29.204 : en:Chapter 11
01:24:38.573 : en:Chapter 12
01:34:58.109 : en:Chapter 13
01:44:27.094 : en:Chapter 14
01:53:29.469 : en:Chapter 15
Скріншоти









Джерело:
Особиста оцінка: 10 - без зайвих вагань рекомендую всім!



Золотий реліз (завантажене не впливає на рейтинг)
 Трекер:    Зареєстрований   

Завантажити / скачати фільм українською



відео для новачків



 Зареєстрований:   2019-09-30 16:28
 Розмір:   49.31 GB 
 Оцінка фільму:   9.5/10 (Голосів: 18)
   
Інші релізи
   Залізна людина / Iron Man (2008) Remux 1080p Ukr/Eng | Sub Ukr/Eng Argentum  5 / 0   28.04 GB   2017-08-17 10:35 
   Залізна Людина/ Iron Man (2008) 720p Drool  6 / 0   4.29 GB   2012-09-10 12:49 
   Залізна Людина/ Iron Man (2008) 1080p Ukr/Eng | Sub Ukr/Eng Слоник24  7 / 0   13.6 GB   2011-01-11 19:40 
Mike88 
Новенький


З нами з: 21.10.08
Востаннє: 10.10.19
Повідомлень: 9

2019-09-21 18:42  
Вийшов новий UHD BD з US трансферу - без цифрового шумодаву та з меншою насиченістю кольорів

new---old
---
---
---

Argentum 
Поважний учасник


З нами з: 25.09.11
Востаннє: 13.10.19
Повідомлень: 213

2019-09-29 23:17  
Mike88 написано:
Вийшов новий UHD BD з US трансферу - без цифрового шумодаву та з меншою насиченістю кольорів

Дякую за інформацію. Подивлюся що там.

Argentum 
Поважний учасник


З нами з: 25.09.11
Востаннє: 13.10.19
Повідомлень: 213

2019-09-30 16:31  
Реліз оновлено! Замінив відеоряд на більш якісний з нового Blu-ray. Прохання перезавантажити торрент!

f1lia 
Новенький


З нами з: 25.02.15
Востаннє: 13.10.19
Повідомлень: 14

2019-10-08 12:57  
Я так розумію це з обіцяного Марвелом повного ремастерингу трьох частин?
Argentum 
Поважний учасник


З нами з: 25.09.11
Востаннє: 13.10.19
Повідомлень: 213

2019-10-08 22:18  
f1lia написано:
Я так розумію це з обіцяного Марвелом повного ремастерингу трьох частин?

Це офіційний випуск усіх фільмів що входять до КВМ у форматі 4К.

f1lia 
Новенький


З нами з: 25.02.15
Востаннє: 13.10.19
Повідомлень: 14

2019-10-09 09:30  
Argentum
ясно, я якраз випадково форматнув 3ТБ, то тепер буду нові релізи підтримувати. маю маленьке прохання, писати про оновлений відеоряд )

Ваш часовий пояс: GMT + 2 Години

Нова тема   Відповісти