Залізна людина / Iron Man (2008) UHD Remux 2160p 4K HDR H.265 Ukr/Eng | Sub Ukr/Eng

Нові коментарі

Нова тема   Відповісти
Автор Повідомлення
Argentum 
Поважний учасник


З нами з: 25.09.11
Востаннє: 20.04.19
Повідомлень: 189

2019-03-28 16:19  
Залізна людина / Iron Man (2008) UHD Remux 2160p 4K HDR H.265 Ukr/Eng | Sub Ukr/Eng

Залізна людина / Iron Man (2008) UHD Remux 2160p 4K HDR H.265 Ukr/Eng | Sub Ukr/Eng


Жанр: фантастика, екшн, пригодницький, бойовик
Країна: США



Кінокомпанія: Marvel Studios, Fairview Entertainment
Режисер: Джон Фавро
Актори: Роберт Дауні (молодший), Терренс Ховард Дешон, Джефф Бріджес, Гвінет Пелтроу, Леслі Бібб, Шон Тоуб, Фаран Таїр, Сайед Бадрея, Білл Смітровіч, Кларк Грегг

Сюжет:
Мільярдер, плейбой, геніальний винахідник і голова корпорації «Старк Індастріз», що поставляє зброю в усі регіони світу, Тоні Старк відправляється в Афганістан особисто представити свою останню розробку - ракету «Єрихон». Потрапивши в полон до терористів групи «Десять кілець», він переглядає свої погляди на бізнес, вирішуючи спрямувати кошти на благодійність. Втікши з полону, він створює суперсучасний костюм з надміцних матеріалів, що дозволяє швидко наводити порядок у гарячих точках планети. Права рука Старка Обадайа Стерн не поділяє гуманістичних поривів боса, мріючи про створення солдатів-роботів нового покоління.


Тривалість: 02:06:22
Якість: UHD Remux 2160p 4K
Відео:
кодек: H.265 (HEVC)
розмір кадру: 3840 х 2160
бітрейт: 56 Мб/с
бітова глибина: 10 біт
кольоровий простір: BT.2020 (HDR)

Увага! Перед завантаженням переконайтесь, що ваш пристрій відтворення (та/або ПЗ) підтримує H.265 (HEVC)

Аудіо # 1:
мова: українська
переклад: професійний дубльований | студія Postmodern
кодек: 5.1
бітрейт: 448 кб/с

Аудіо # 2:
мова: англійська
переклад: оригінал
кодек: 5.1
бітрейт: 1536 кб/с

Субтитри 1-2: (форсовані, повні)
мова: українська
тип: програмні (м'які)
формат: *.srt

Субтитри 3-4: (форсовані, повні)
мова: англійська
тип: програмні (м'які)
формат: *.srt
Info
General
Unique ID : 65551367379856299161209532815311874747 (0x3150BBF027EE171DD4F3C3391C37AABB)
Complete name : Iron Man (2008) [Ukr, Eng] Remux HDR 2160p [Hurtom].
Format :
Format version : Version 4
File size : 51.2 GiB
Duration : 2 h 6 min
Overall bit rate : 58.0 Mb/s
Movie name : Iron Man (2008) [Ukr, Eng] Remux HDR 2160p
Encoded date : UTC 2019-03-28 12:26:30
Writing application : v32.0.0 ('Astral Progressions') 64-bit
Writing library : libebml v1.3.7 + v1.5.0
Attachments : 170208134623162082_f0_0.jpg

Video
ID : 1
Format : HEVC
Format/Info : High Efficiency Video Coding
Format profile : Main [email protected]@High
HDR format : SMPTE ST 2086, HDR10 compatible
Codec ID : V_MPEGH/ISO/HEVC
Duration : 2 h 6 min
Bit rate : 56.0 Mb/s
Width : 3 840 pixels
Height : 2 160 pixels
Display aspect ratio : 16:9
Frame rate mode : Constant
Frame rate : 23.976 (23976/1000) FPS
Standard : Component
Color space : YUV
Chroma subsampling : 4:2:0 (Type 2)
Bit depth : 10 bits
Bits/(Pixel*Frame) : 0.282
Stream size : 49.4 GiB (97%)
Title : HEVC 3840*2160 HDR10 @ 56 Mbps
Language : Multiple languages
Default : Yes
Forced : Yes
Color range : Limited
Color primaries : BT.2020
Transfer characteristics : PQ
Matrix coefficients : BT.2020 non-constant
Mastering display color pri : Display P3
Mastering display luminance : min: 0.0050 cd/m2, max: 1000 cd/m2

Audio #1
ID : 2
Format : AC-3
Format/Info : Audio Coding 3
Commercial name : Dolby Digital
Codec ID : A_AC3
Duration : 2 h 6 min
Bit rate mode : Constant
Bit rate : 448 kb/s
Channel(s) : 6 channels
Channel layout : L R C LFE Ls Rs
Sampling rate : 48.0 kHz
Frame rate : 31.250 FPS (1536 SPF)
Bit depth : 16 bits
Compression mode : Lossy
Delay relative to video : 20 s 342 ms
Stream size : 404 MiB (1%)
Title : 5.1 @ 448 Kbps
Language : Ukrainian
Service kind : Complete Main
Default : Yes
Forced : Yes

Audio #2
ID : 3
Format :
Format/Info : Digital Theater Systems
Codec ID : A_DTS
Duration : 2 h 6 min
Bit rate mode : Constant
Bit rate : 1 536 kb/s
Channel(s) : 6 channels
Channel layout : C L R Ls Rs LFE
Sampling rate : 48.0 kHz
Frame rate : 93.750 FPS (512 SPF)
Bit depth : 16 bits
Compression mode : Lossy
Delay relative to video : 20 s 342 ms
Stream size : 1.35 GiB (3%)
Title : 5.1 @ 1536 Kbps
Language : English
Default : No
Forced : No

Text #1
ID : 4
Format : UTF-8
Codec ID : S_TEXT/UTF8
Codec ID/Info : UTF-8 Plain Text
Duration : 1 h 49 min
Bit rate : 2 b/s
Count of elements : 46
Stream size : 2.02 KiB (0%)
Title : Forced
Language : Ukrainian
Default : Yes
Forced : Yes

Text #2
ID : 5
Format : UTF-8
Codec ID : S_TEXT/UTF8
Codec ID/Info : UTF-8 Plain Text
Duration : 2 h 4 min
Bit rate : 96 b/s
Count of elements : 1345
Stream size : 88.5 KiB (0%)
Title : Full
Language : Ukrainian
Default : No
Forced : No

Text #3
ID : 6
Format : UTF-8
Codec ID : S_TEXT/UTF8
Codec ID/Info : UTF-8 Plain Text
Duration : 1 h 3 min
Bit rate : 1 b/s
Count of elements : 37
Stream size : 752 Bytes (0%)
Title : Forced
Language : English
Default : No
Forced : No

Text #4
ID : 7
Format : UTF-8
Codec ID : S_TEXT/UTF8
Codec ID/Info : UTF-8 Plain Text
Duration : 2 h 4 min
Bit rate : 59 b/s
Count of elements : 1339
Stream size : 53.8 KiB (0%)
Title : Full
Language : English
Default : No
Forced : No

Menu
00:00:00.000 : en:Chapter 01
00:09:06.170 : en:Chapter 02
00:18:00.579 : en:Chapter 03
00:26:49.941 : en:Chapter 04
00:35:01.849 : en:Chapter 05
00:43:15.259 : en:Chapter 06
00:52:38.488 : en:Chapter 07
00:59:24.644 : en:Chapter 08
01:07:32.423 : en:Chapter 09
01:11:44.300 : en:Chapter 10
01:18:31.206 : en:Chapter 11
01:24:40.575 : en:Chapter 12
01:35:00.111 : en:Chapter 13
01:44:29.346 : en:Chapter 14
01:53:31.471 : en:Chapter 15
Скріншоти














Джерело:
Особиста оцінка: 10 - без зайвих вагань рекомендую всім!



Золотий реліз (завантажене не впливає на рейтинг)
 Трекер:    Зареєстрований   

Завантажити / скачати фільм українською



відео для новачків



 Зареєстрований:   2019-03-28 16:33
 Розмір:   51.18 GB 
 Оцінка фільму:   9.3/10 (Голосів: 12)
   
Інші релізи
   Залізна людина / Iron Man (2008) Remux 1080p Ukr/Eng | Sub Ukr/Eng Argentum  9 / 0   28.04 GB   2017-08-17 10:35 
   Залізна Людина/ Iron Man (2008) 720p Drool  11 / 0   4.29 GB   2012-09-10 12:49 
   Залізна Людина/ Iron Man (2008) 1080p Ukr/Eng | Sub Ukr/Eng Слоник24  9 / 0   13.6 GB   2011-01-11 19:40 
Ваш часовий пояс: GMT + 2 Години

Нова тема   Відповісти