Ліззі МакГваєр / The Lizzie McGuire Movie (2003) 720p Ukr/Eng | Sub Ukr/Eng

Нові коментарі

Нова тема   Відповісти
Автор Повідомлення
Anonymous 







2019-03-27 17:51  
Ліззі МакГваєр / The Lizzie McGuire Movie (2003) 720p Ukr/Eng | Sub Ukr/Eng

Ліззі МакГваєр / The Lizzie McGuire Movie (2003) 720p Ukr/Eng | Sub Ukr/Eng


Жанр: комедія, музичний, романтичний, пригодницький, сімейний
Країна: США



Кінокомпанія: Walt Disney Pictures, Teen Life Productions
Режисер: Джим Фолл (Jim Fall)
Актори: Хіларі Дафф (Hilary Duff), Адам Лемберг (Adam Lamberg), Хейллі Тодд (Hallie Todd), Роберт Керредін (Robert Carradine), Джейк Томас (Jake Thomas), Ешлі Брілло (Ashlie Brillault), Клейтон Снайдер (Clayton Snyder)

Сюжет:
Тринадцятирічна школярка Ліззі Магуайер і її приятелі Гордо, Кейт і Ітан збираються відтягнутися по повній програмі під час їх поїздки з класом до Італії.

Але там трапляється вельми несподівана подія: дівчинку помилково приймають за італійську поп-зірку Ізабеллу, та до того ж дівчина закохується в колишнього дружка Ізабелли Паоло. Коли батьки Лізі про все дізнаються, вони разом з її братом Меттом терміново вилітають до Італії.

Але Ліззі вже не та закомплексована дівчинка-підліток, якою була раніше, вона до такої міри вжилася в роль співачки, що і насправді стала справжнісінькою зіркою.


Тривалість: 01:33:52
Якість: 720p
Відео:
кодек:
розмір кадру: 1 280 х 540
бітрейт: 3 967 кб/с

Аудіо # 1:
мова: українська
переклад: двоголосий закадровий
кодек: 2.0 (з 5.1)
бітрейт: 192 кб/с

Аудіо # 2:
мова: англійська
переклад: оригінал
кодек: 5.1
бітрейт: 384 кб/с

Субтитри:
мова: українська
тип: програмні (м'які)
формат: *.srt

Субтитри:
мова: англійська
тип: програмні (м'які)
формат: *.srt
Info
General
Unique ID : 171692531835730306157965795568434751824 (0x812AC7615683998BBEC66C862BC72950)
Complete name : H:\Toloka\2019\The Lizzie McGuire Movie (2003) 720p.
Format :
Format version : Version 4
File size : 3.04 GiB
Duration : 1 h 33 min
Overall bit rate : 4 635 kb/s
Movie name : The Lizzie McGuire (2003)
Encoded date : UTC 2019-03-27 15:44:09
Writing application : v6.1.0 ('Old Devil') built on Mar 4 2013 09:10:42
Writing library : libebml v1.3.0 + v1.4.0

Video
ID : 1
Format : AVC
Format/Info : Advanced Video Codec
Format profile : [email protected]
Format settings : 2 Ref Frames
Format settings, CABAC : No
Format settings, RefFrames : 2 frames
Codec ID : V_MPEG4/ISO/AVC
Duration : 1 h 33 min
Bit rate : 3 967 kb/s
Width : 1 280 pixels
Height : 540 pixels
Display aspect ratio : 2.40:1
Frame rate mode : Constant
Frame rate : 23.976 FPS
Color space : YUV
Chroma subsampling : 4:2:0
Bit depth : 8 bits
Scan type : Progressive
Bits/(Pixel*Frame) : 0.239
Stream size : 2.60 GiB (86%)
Title : The Lizzie McGuire (2003)
Language : Russian
Default : Yes
Forced : No
Color range : Limited
Color primaries : BT.709
Transfer characteristics : BT.709
Matrix coefficients : BT.709

Audio #1
ID : 2
Format : AC-3
Format/Info : Audio Coding 3
Commercial name : Dolby Digital
Codec ID : A_AC3
Duration : 1 h 33 min
Bit rate mode : Constant
Bit rate : 192 kb/s
Channel(s) : 2 channels
Channel layout : L R
Sampling rate : 48.0 kHz
Frame rate : 31.250 FPS (1536 SPF)
Bit depth : 16 bits
Compression mode : Lossy
Stream size : 129 MiB (4%)
Title : UKR (Новий)
Language : Ukrainian
Service kind : Complete Main
Default : Yes
Forced : Yes

Audio #2
ID : 3
Format : AC-3
Format/Info : Audio Coding 3
Commercial name : Dolby Digital
Codec ID : A_AC3
Duration : 1 h 33 min
Bit rate mode : Constant
Bit rate : 384 kb/s
Channel(s) : 6 channels
Channel layout : L R C LFE Ls Rs
Sampling rate : 48.0 kHz
Frame rate : 31.250 FPS (1536 SPF)
Bit depth : 16 bits
Compression mode : Lossy
Stream size : 258 MiB (8%)
Title : English
Language : English
Service kind : Complete Main
Default : No
Forced : No

Text #1
ID : 4
Format : UTF-8
Codec ID : S_TEXT/UTF8
Codec ID/Info : UTF-8 Plain Text
Title : UKR by urij546724
Language : Ukrainian
Default : Yes
Forced : No

Text #2
ID : 5
Format : UTF-8
Codec ID : S_TEXT/UTF8
Codec ID/Info : UTF-8 Plain Text
Title : eng
Language : English
Default : No
Forced : No

Menu
00:00:00.000 : en:Opening Credits/Graduation Day
00:08:43.000 : en:Rome, The Eternal City
00:15:07.000 : en:Lizzie's Wish Comes True
00:22:46.000 : en:Adventures
00:29:54.000 : en:Paolo Asks For Help
00:36:37.000 : en:Shopping Spree
00:48:45.000 : en:Promises
00:59:30.000 : en:"What Dreams Are Made Of"
01:06:19.000 : en:Shocking Discoveries
01:16:50.000 : en:"What Dreams Are REALLY Made Of"
01:24:27.000 : en:The After Party
01:27:44.000 : en:Capturing The Moment/End Credits
Скріншоти








За українську доріжку подяка п.: karvai0, Hulk1987, urij546724
За українські субтитри подяка п. urij546724
За український постер подяка п. DareDevil96
Особиста подяка пану denixx за надану матеріальну допомогу на підтримку цього і майбутніх релізів.
Джерело:


Срібний реліз (на рейтинг впливає 50% завантаженого)
 Трекер:    Зареєстрований   

Завантажити / скачати фільм українською



відео для новачків



 Зареєстрований:   2019-03-27 17:51
 Розмір:   3.04 GB 
 Оцінка фільму:   10/10 (Голосів: 6)
   
Інші релізи
Ваш часовий пояс: GMT + 2 Години

Нова тема   Відповісти