Крижана лихоманка / Frozen Fever (2015) 1080p Ukr/Eng | Sub Ukr/Eng

Нові коментарі

Нова тема   Відповісти
Автор Повідомлення
Anonymous 







2019-03-27 15:24  
Крижана лихоманка / Frozen Fever (2015) 1080p Ukr/Eng | Sub Ukr/Eng

Крижана лихоманка / Frozen Fever (2015) 1080p Ukr/Eng | Sub Ukr/Eng
Оригінальний постер:

Крижана лихоманка / Frozen Fever (2015) 1080p Ukr/Eng | Sub Ukr/Eng


Жанр: анімація, комедія, фентезі, пригодницький, короткометражний
Країна: США



Кінокомпанія: Walt Disney Animation Studios, Walt Disney Pictures
Режисер: Кріс Бак / Chris Buck, Дженніфер Лі / Jennifer Lee
Актори: Крістен Белл / Kristen Bell, Ідіна Мензел / Idina Menzel, Джонатан Грофф / Jonathan Groff, Джош Гед / Josh Gad, Сантіно Фонтана / Santino Fontana, Пол Бріґс / Paul Briggs, Кріс Вільямс / Chris Williams

Сюжет:
У день народження Анни, Ельза і Крістофф сповнені рішучості подарувати їй найкраще свято, зроблене коли-небудь, але крижані сили Ельзи можуть принести більше шкоди, ніж користі при організації свята.


Тривалість: 00:07:57
Якість: 1080p

Відео:
кодек:
розмір кадру: 1920 х 860
бітрейт: 8777 кбіт/с [crf=16]

Аудіо # 1:
мова: українська
переклад: професійний дубльований | студія LeDoyen
кодек: 5.1
бітрейт: 384 кбіт/с
Інформація про дубляж
Переклад (в т.ч. пісень): Роман Дяченко
Режисер дубляжу: Анна Пащенко
Муз.керівник: Тетяна Піроженко
Ролі дублювали:
Анна - Ганна Сагайдачна,
Ельза - Аліна Проценко,
Ельза (вокал) - Шаніс,
Крістоф - Дмитро Сова,
Олаф - Андрій Альохін,
Ганс - Володимир Остапчук,
Оукен - Євген Лунченко
Зефірчик - В'ячеслав Дудко

Студія дубляжу LeDoyen, зміксовано на студії Shepperton Int.
Аудіо # 2:
мова: англійська
переклад: оригінал
кодек: 5.1
бітрейт: 1509 кбіт/с

Субтитри # 1-2:
мова: українська (форсовані, повні)
тип: програмні (м'які)
формат: *.srt

Субтитри # 3-4:
мова: англійська (повні, SDH)
тип: програмні (м'які)
формат: *.srt
Info
Код:

Complete name               : Frozen Fever (2015) [Ukr,Eng sub.Ukr,Eng] 1080p [Hurtom].
Format                      :
Format version              : Version 4
File size                   : 608 MiB
Duration                    : 7 min 57 s
Overall bit rate            : 10.7 Mb/s
Movie name                  : Крижана лихоманка / Frozen Fever (2015) [Ukr,Eng sub.Ukr,Eng] 1080p [Hurtom]
Encoded date                : UTC 2019-03-27 13:00:29
Writing application         : v32.0.0 ('Astral Progressions') 64-bit
Writing library             : libebml v1.3.7 + v1.5.0
Cover                       : Yes
Attachments                 : cover.jpg

Video
ID                          : 1
Format                      : AVC
Format/Info                 : Advanced Video Codec
Format profile              : [email protected]
Format settings             : CABAC / 5 Ref Frames
Format settings, CABAC      : Yes
Format settings, ReFrames   : 5 frames
Codec ID                    : V_MPEG4/ISO/AVC
Duration                    : 7 min 57 s
Bit rate                    : 8 777 kb/s
Width                       : 1 920 pixels
Height                      : 860 pixels
Display aspect ratio        : 2.25:1
Frame rate mode             : Constant
Frame rate                  : 23.976 (24000/1001) FPS
Color space                 : YUV
Chroma subsampling          : 4:2:0
Bit depth                   : 8 bits
Scan type                   : Progressive
Bits/(Pixel*Frame)          : 0.222
Stream size                 : 500 MiB (82%)
Title                       : Крижана лихоманка / Frozen Fever (2015) 1080p [HDBits Internal]
Writing library             : core 146 r0+2586 e393126 t_mod_Custom [[email protected] X86_64]
Encoding settings           : cabac=1 / ref=5 / deblock=1:-3:-3 / analyse=0x3:0x133 / me=umh / subme=11 / psy=1 / fade_compensate=0.00 / psy_rd=0.85:0.00 / mixed_ref=1 / me_range=32 / chroma_me=1 / trellis=2 / 8x8dct=1 / cqm=0 / deadzone=21,11 / fast_pskip=0 / chroma_qp_offset=-2 / threads=12 / lookahead_threads=3 / sliced_threads=0 / nr=0 / decimate=0 / interlaced=0 / bluray_compat=0 / constrained_intra=0 / fgo=0 / bframes=8 / b_pyramid=2 / b_adapt=2 / b_bias=0 / direct=3 / weightb=1 / open_gop=0 / weightp=2 / keyint=250 / keyint_min=23 / scenecut=40 / intra_refresh=0 / rc_lookahead=60 / rc=crf / mbtree=0 / crf=16.0000 / qcomp=0.60 / qpmin=0:0:0 / qpmax=69:69:69 / qpstep=4 / vbv_maxrate=62500 / vbv_bufsize=78125 / crf_max=0.0 / nal_hrd=none / filler=0 / ip_ratio=1.20 / pb_ratio=1.15 / aq=1:0.90 / aq-sensitivity=10.00 / aq-factor=1.00:1.00:1.00 / aq2=0 / aq3=0
Language                    : English
Default                     : Yes
Forced                      : No

Audio #1
ID                          : 2
Format                      : AC-3
Format/Info                 : Audio Coding 3
Commercial name             : Dolby Digital
Codec ID                    : A_AC3
Duration                    : 7 min 57 s
Bit rate mode               : Constant
Bit rate                    : 384 kb/s
Channel(s)                  : 6 channels
Channel layout              : L R C LFE Ls Rs
Sampling rate               : 48.0 kHz
Frame rate                  : 31.250 FPS (1536 SPF)
Bit depth                   : 16 bits
Compression mode            : Lossy
Stream size                 : 21.9 MiB (4%)
Title                       : Dub [LeDoyen, iTunes] 5.1 384 Kbps
Language                    : Ukrainian
Service kind                : Complete Main
Default                     : Yes
Forced                      : No

Audio #2
ID                          : 3
Format                      :
Format/Info                 : Digital Theater Systems
Codec ID                    : A_DTS
Duration                    : 7 min 57 s
Bit rate mode               : Constant
Bit rate                    : 1 509 kb/s
Channel(s)                  : 6 channels
Channel layout              : C L R Ls Rs LFE
Sampling rate               : 48.0 kHz
Frame rate                  : 93.750 FPS (512 SPF)
Bit depth                   : 24 bits
Compression mode            : Lossy
Stream size                 : 85.9 MiB (14%)
Title                       : Original, 5.1 1509 kbps
Language                    : English
Default                     : No
Forced                      : No

Text #1
ID                          : 4
Format                      : UTF-8
Codec ID                    : S_TEXT/UTF8
Codec ID/Info               : UTF-8 Plain Text
Duration                    : 6 min 41 s
Bit rate                    : 2 b/s
Count of elements           : 3
Stream size                 : 124 Bytes (0%)
Title                       : Ukr Forced
Language                    : Ukrainian
Default                     : Yes
Forced                      : Yes

Text #2
ID                          : 5
Format                      : UTF-8
Codec ID                    : S_TEXT/UTF8
Codec ID/Info               : UTF-8 Plain Text
Duration                    : 7 min 13 s
Bit rate                    : 136 b/s
Count of elements           : 169
Stream size                 : 7.24 KiB (0%)
Title                       : Ukr Full
Language                    : Ukrainian
Default                     : No
Forced                      : No

Text #3
ID                          : 6
Format                      : UTF-8
Codec ID                    : S_TEXT/UTF8
Codec ID/Info               : UTF-8 Plain Text
Duration                    : 7 min 11 s
Bit rate                    : 89 b/s
Count of elements           : 169
Stream size                 : 4.69 KiB (0%)
Title                       : Eng Full
Language                    : English
Default                     : No
Forced                      : No

Text #4
ID                          : 7
Format                      : UTF-8
Codec ID                    : S_TEXT/UTF8
Codec ID/Info               : UTF-8 Plain Text
Duration                    : 7 min 24 s
Bit rate                    : 100 b/s
Count of elements           : 205
Stream size                 : 5.47 KiB (0%)
Title                       : Eng SDH
Language                    : English
Default                     : No
Forced                      : No


Джерела та подяки: & &



 Трекер:    Зареєстрований   

Завантажити / скачати мультфільм українською



відео для новачків



 Зареєстрований:   2019-03-27 15:24
 Розмір:   608 MB 
 Оцінка мультфільму:   9.5/10 (Голосів: 18)
 ЗАЛИШАЙТЕСЬ ЯКОМОГА ДОВШЕ НА РОЗДАЧІ! ЗАВАНТАЖИВ САМ - ДАЙ ЗАВАНТАЖИТИ ІНШИМ!
   
Інші релізи
Ваш часовий пояс: GMT + 2 Години

Нова тема   Відповісти