Ранковий підйом (Доброго Ранку) / Morning Glory (2010) 1080p H.265 2xUkr/Eng | Sub Ukr/Eng

Нові коментарі

Нова тема   Відповісти
Автор Повідомлення
Anonymous 







2019-03-27 11:34  
Ранковий підйом (Доброго Ранку) / Morning Glory (2010) 1080p H.265 2xUkr/Eng | Sub Ukr/Eng

Ранковий підйом (Доброго Ранку) / Morning Glory (2010) 1080p H.265 2xUkr/Eng | Sub Ukr/Eng


Жанр: романтична комедія, драма, мелодрама
Країна: США
Кінокомпанія: Bad Robot
Режисер: Роджер Мічелл
Актори: Рейчел Макадамс, Гаррісон Форд, Дайан Кітон, Джон Пенкоу, Ванесса Аспіллага, Брюс Олтман , Фіфті Сент, Ті Баррел, Патрік Вілсон, Джеф Голдблюм та інші.

Сюжет:
У пошуках нового місця роботи Беккі Фулер (Рейчел МакАдамс) за відсутністю кращих варіантів влаштовується телепродюсером низько-рейтингового ранкового шоу «Morning Glory». Щоб збільшити аудиторію і підняти рейтинг програми Беккі запрошує на посаду ведучого легендарного Майка Помероя (Гаррісон Форд), для якого кращі часи вже давно позаду. Рішення це далеко не бездоганне. Майк виявляється досить впертим і примхливим співробітником і до того ж ніяк не може знайти спільну мову зі своєю колегою Колін Пек (Даян Кітон), з якою він змушений ділити ефір. Постійні конфлікти і проблеми ставлять під загрозу долю шоу і подальшу кар'єру Беккі.

Тривалість: 01:47:28
Якість: (Власний Rip)
Відео:
кодек: H.265 (HEVC)
розмір кадру: 1920 x 800
бітрейт: 7750 кб/с
бітова глибина: 10 біт
Увага! Перед завантаженням переконайтесь, що ваш пристрій відтворення (та/або ПЗ) підтримує H.265 (HEVC)

Аудіо # 1:
мова: українська
переклад: професійний дубльований | студія LeDoyen |
кодек: 5.1
бітрейт: 448 кб/с
Інформація про дубляж
Перекладач: Надія Бойван
Режисер дубляжу: Ольга Фокіна
Звукорежисер: Андрій Тріфонов
Координатор дубляжу: Аліна Гаєвська
Ролі дублювали: Рейчел МакАдамс/Бекі Фулер – Катерина Брайковська, Гаррісон Форд/Майк Помрой – Олександр Ігнатуша, Колін Пек – Надія Кондратовська, Патрік Вілсон/Адам Беннет – Андрій Твердак, Джеф Ґолдблюм/Джеррі Барнз – Микола Боклан, Джон Панков/Ленні Берґман – Олег Лепенець, Ерні – Павло Костіцин, Асистент – Валерій Легін, Марина Кукліна, Ольга Радчук та інші.
Аудіо # 2:
мова: українська
переклад: багатоголосий закадровий
кодек: 2.0
бітрейт: 192 кб/с

Аудіо # 3:
мова: англійська
переклад: оригінал
кодек: 5.1
бітрейт: 640 кб/с

Субтитри # 1:
мова: українська (Full),
тип: програмні (м'які)
формат: *.srt

Субтитри # 2:
мова: англійська (Full),
тип: програмні (м'які)
формат: *.srt


Info
Код:
General
Unique ID                                : 166726064476946571220090364916038642352 (0x7D6E45A25B0440A0A5B129CD4B742AB0)
Complete name                            : F:\Video\Morning Glory (2010) 1080p H.265 [2xUKR_ENG] [Hurtom].
Format                                   :
Format version                           : Version 4 / Version 2
File size                                : 6.78 GiB
Duration                                 : 1 h 47 min
Overall bit rate                         : 9 033 kb/s
Movie name                               : Morning Glory (2010)
Encoded date                             : UTC 2019-03-25 07:27:17
Writing application                      : v32.0.0 ('Astral Progressions') 64-bit
Writing library                          : libebml v1.3.7 + v1.5.0
Cover                                    : Yes
Attachments                              : cover.jpg

Video
ID                                       : 1
Format                                   : HEVC
Format/Info                              : High Efficiency Video Coding
Format profile                           : Main [email protected]@High
Codec ID                                 : V_MPEGH/ISO/HEVC
Duration                                 : 1 h 47 min
Bit rate                                 : 7 750 kb/s
Width                                    : 1 920 pixels
Height                                   : 800 pixels
Display aspect ratio                     : 2.40:1
Frame rate mode                          : Constant
Frame rate                               : 23.976 (24000/1001) FPS
Color space                              : YUV
Chroma subsampling                       : 4:2:0
Bit depth                                : 10 bits
Bits/(Pixel*Frame)                       : 0.210
Stream size                              : 5.82 GiB (86%)
Title                                    : Morning Glory (2010)
Writing library                          : x265 2.9+9-f74003e88622:[Windows][GCC 8.2.0][64 bit] 10bit
Encoding settings                        : cpuid=1111039 / frame-threads=9 / numa-pools=8 / wpp / no-pmode / no-pme / no-psnr / no-ssim / log-level=3 / input-csp=1 / input-res=1920x800 / interlace=0 / total-frames=0 / level-idc=51 / high-tier=1 / uhd-bd=0 / ref=5 / allow-non-conformance / no-repeat-headers / annexb / no-aud / no-hrd / info / hash=0 / no-temporal-layers / open-gop / min-keyint=23 / keyint=250 / gop-lookahead=0 / bframes=8 / b-adapt=2 / b-pyramid / bframe-bias=0 / rc-lookahead=40 / lookahead-slices=5 / scenecut=40 / radl=0 / no-intra-refresh / ctu=64 / min-cu-size=8 / no-rect / no-amp / max-tu-size=32 / tu-inter-depth=1 / tu-intra-depth=1 / limit-tu=0 / rdoq-level=2 / dynamic-rd=0.00 / no-ssim-rd / signhide / no-tskip / nr-intra=0 / nr-inter=0 / no-constrained-intra / no-strong-intra-smoothing / max-merge=2 / limit-refs=3 / no-limit-modes / me=3 / subme=7 / merange=57 / temporal-mvp / weightp / weightb / no-analyze-src-pics / deblock=-2:-2 / no-sao / no-sao-non-deblock / rd=4 / no-early-skip / rskip / no-fast-intra / no-tskip-fast / no-cu-lossless / no-b-intra / no-splitrd-skip / rdpenalty=0 / psy-rd=2.00 / psy-rdoq=1.00 / no-rd-refine / no-lossless / cbqpoffs=0 / crqpoffs=0 / rc=crf / crf=18.0 / qcomp=0.65 / qpstep=2 / stats-write=0 / stats-read=0 / vbv-maxrate=50000 / vbv-bufsize=50000 / vbv-init=0.9 / crf-max=0.0 / crf-min=0.0 / ipratio=1.40 / pbratio=1.30 / aq-mode=1 / aq-strength=1.00 / cutree / zone-count=0 / no-strict-cbr / qg-size=32 / no-rc-grain / qpmax=69 / qpmin=0 / no-const-vbv / sar=1 / overscan=0 / videoformat=5 / range=0 / colorprim=1 / transfer=1 / colormatrix=1 / chromaloc=0 / display-window=0 / max-cll=0,0 / min-luma=0 / max-luma=1023 / log2-max-poc-lsb=8 / vui-timing-info / vui-hrd-info / slices=1 / no-opt-qp-pps / no-opt-ref-list-length-pps / no-multi-pass-opt-rps / scenecut-bias=0.05 / no-opt-cu-delta-qp / no-aq-motion / no-hdr / no-hdr-opt / no-dhdr10-opt / no-idr-recovery-sei / analysis-reuse-level=5 / scale-factor=0 / refine-intra=0 / refine-inter=0 / refine-mv=0 / no-limit-sao / ctu-info=0 / no-lowpass-dct / refine-mv-type=0 / copy-pic=1 / max-ausize-factor=1.0 / no-dynamic-refine / no-single-sei
Default                                  : Yes
Forced                                   : No
Color range                              : Limited
Color primaries                          : BT.709
Transfer characteristics                 : BT.709
Matrix coefficients                      : BT.709

Audio #1
ID                                       : 2
Format                                   : AC-3
Format/Info                              : Audio Coding 3
Codec ID                                 : A_AC3
Duration                                 : 1 h 47 min
Bit rate mode                            : Constant
Bit rate                                 : 448 kb/s
Channel(s)                               : 6 channels
Channel positions                        : Front: L C R, Side: L R, LFE
Sampling rate                            : 48.0 kHz
Frame rate                               : 31.250 FPS (1536 SPF)
Bit depth                                : 16 bits
Compression mode                         : Lossy
Stream size                              : 344 MiB (5%)
Title                                    : ПД - DVD, 5.1 448 kbps
Language                                 : Ukrainian
Service kind                             : Complete Main
Default                                  : Yes
Forced                                   : Yes

Audio #2
ID                                       : 3
Format                                   : AC-3
Format/Info                              : Audio Coding 3
Codec ID                                 : A_AC3
Duration                                 : 1 h 47 min
Bit rate mode                            : Constant
Bit rate                                 : 192 kb/s
Channel(s)                               : 2 channels
Channel positions                        : Front: L R
Sampling rate                            : 48.0 kHz
Frame rate                               : 31.250 FPS (1536 SPF)
Bit depth                                : 16 bits
Compression mode                         : Lossy
Stream size                              : 148 MiB (2%)
Title                                    : БЗ - K1, 2.0 192 Kbps
Language                                 : Ukrainian
Service kind                             : Complete Main
Default                                  : No
Forced                                   : No

Audio #3
ID                                       : 4
Format                                   : AC-3
Format/Info                              : Audio Coding 3
Codec ID                                 : A_AC3
Duration                                 : 1 h 47 min
Bit rate mode                            : Constant
Bit rate                                 : 640 kb/s
Channel(s)                               : 6 channels
Channel positions                        : Front: L C R, Side: L R, LFE
Sampling rate                            : 48.0 kHz
Frame rate                               : 31.250 FPS (1536 SPF)
Bit depth                                : 16 bits
Compression mode                         : Lossy
Stream size                              : 492 MiB (7%)
Title                                    : Original
Language                                 : English
Service kind                             : Complete Main
Default                                  : No
Forced                                   : No

Text #1
ID                                       : 5
Format                                   : UTF-8
Codec ID                                 : S_TEXT/UTF8
Codec ID/Info                            : UTF-8 Plain Text
Duration                                 : 1 h 42 min
Bit rate                                 : 156 b/s
Count of elements                        : 1709
Stream size                              : 117 KiB (0%)
Title                                    : Full
Language                                 : Ukrainian
Default                                  : Yes
Forced                                   : No

Text #2
ID                                       : 6
Format                                   : UTF-8
Codec ID                                 : S_TEXT/UTF8
Codec ID/Info                            : UTF-8 Plain Text
Duration                                 : 1 h 42 min
Bit rate                                 : 90 b/s
Count of elements                        : 1691
Stream size                              : 67.6 KiB (0%)
Title                                    : Full
Language                                 : English
Default                                  : No
Forced                                   : No

Menu
01:47:00.000                             : en:Chapter 01
00:06:58.793                             : en:Chapter 02
00:09:38.286                             : en:Chapter 03
00:15:20.085                             : en:Chapter 04
00:22:49.576                             : en:Chapter 05
00:26:19.619                             : en:Chapter 06
00:31:37.895                             : en:Chapter 07
00:39:08.679                             : en:Chapter 08
00:44:19.073                             : en:Chapter 09
00:49:39.977                             : en:Chapter 10
00:54:25.512                             : en:Chapter 11
01:00:35.631                             : en:Chapter 12
01:05:48.945                             : en:Chapter 13
01:13:32.616                             : en:Chapter 14
01:17:25.474                             : en:Chapter 15
01:21:15.787                             : en:Chapter 16
01:29:12.305                             : en:Chapter 17
01:34:38.130                             : en:Chapter 18
Світлини





Джерело: &
Особиста оцінка: 0 - не дивився


 Трекер:    Зареєстрований   

Завантажити / скачати фільм українською



відео для новачків



 Зареєстрований:   2019-03-27 11:34
 Розмір:   6.78 GB 
 Оцінка фільму:   9.3/10 (Голосів: 7)
   
mutomba 
VIP


З нами з: 20.10.13
Востаннє: 10.11.19
Повідомлень: 344

2019-03-28 21:58  
Класне кіно!
antik_2008 
Релізер і модератор відео


З нами з: 20.10.08
Востаннє: 12.11.19
Повідомлень: 2617

2019-03-28 22:54  
9/10 Гарний фільм.
Ваш часовий пояс: GMT + 2 Години

Нова тема   Відповісти