Момо / Momo alla conquista del tempo (2001)

Нові коментарі

Нова тема   Відповісти
Останній раз роздавалося 4ugeistr (2020-10-22)
Автор Повідомлення
surikmas 
Новенький


З нами з: 26.03.19
Востаннє: 23.10.20
Повідомлень: 17

2019-03-27 10:16  
Момо / Momo alla conquista del tempo (2001)



Жанр: анімація, сімейний, казка
Країна: Iтaлія, Німеччина



Кіностудія / кінокомпанія: Cecchi Gori Group Tiger Cinematografica Taurus Produktion
Режисер: Енцо Де Ало
Ролі озвучували: Вікторія Френц, Нора Фрідріх, Вільгельм Гарт, Роланд Геммо

Сюжет:
Маленька сирітка Момо знайшла собі притулок у руїнах старого амфітеатру і нових друзів. Але одного дня вона відчула - довкола неї щось змінилося. У місті з'явилися могутні «Сірі лорди», що живуть за рахунок часу, вкраденого ними у інших людей. Лише Момо розуміє небезпеку і може щось зробити: ні в кого з її друзів вже не залишилося часу! За допомогою черепахи Касіопеї і Повелителя часу Майстра Хори Момо починає битву проти «Сірих лордів», що встигли захопити її новий будинок і підпорядкувати собі її друзів...
Мультфільм знято за однойменним твором Міхаеля Енде, автора "Нескінченної історії".

Тривалість: 01:17:34
Якість:

Відео:
кодек:
розмір кадру: 624x336 (1.85:1)
бітрейт: 1203 кб/с

Аудіо:
мова: українська
переклад: двоголосий закадровий
кодек: MP3 2.0
бітрейт: 128 кб/с
Info
Код:
General
Complete name               : D:\MOMO (UKR-P2).DVRRip  by ExKinoRay & Shkiper.avi
Format                      : AVI
Format/Info                 : Audio Video Interleave
File size                   : 744 MiB
Duration                    : 1 h 17 min
Overall bit rate            : 1 341 kb/s
Writing application         : VirtualDubMod 1.5.10.3 | www.virtualdub-fr.org || (build 2550/release)
Writing library             : VirtualDubMod build 2550/release

Video
ID                          : 0
Format                      : MPEG-4 Visual
Format profile              : Advanced [email protected]
Format settings             : BVOP1 / Custom Matrix
Format settings, BVOP       : 1
Format settings, QPel       : No
Format settings, GMC        : No warppoints
Format settings, Matrix     : Custom
Codec ID                    :
Codec ID/Hint               :
Duration                    : 1 h 17 min
Bit rate                    : 1 203 kb/s
Width                       : 624 pixels
Height                      : 336 pixels
Display aspect ratio        : 1.85:1
Frame rate                  : 25.000 FPS
Color space                 : YUV
Chroma subsampling          : 4:2:0
Bit depth                   : 8 bits
Scan type                   : Progressive
Compression mode            : Lossy
Bits/(Pixel*Frame)          : 0.229
Stream size                 : 668 MiB (90%)
Writing library             : 73

Audio
ID                          : 1
Format                      : MPEG Audio
Format version              : Version 1
Format profile              : Layer 3
Codec ID                    : 55
Codec ID/Hint               : MP3
Duration                    : 1 h 17 min
Bit rate mode               : Constant
Bit rate                    : 128 kb/s
Channel(s)                  : 2 channels
Sampling rate               : 48.0 kHz
Frame rate                  : 41.667 FPS (1152 SPF)
Compression mode            : Lossy
Stream size                 : 71.0 MiB (10%)
Alignment                   : Aligned on interleaves
Interleave, duration        : 40  ms (1.00 video frame)
Interleave, preload duratio : 504  ms
Writing library             : LAME3.99r
Encoding settings           : -m s -V 4 -q 2 -lowpass 17 -b 128
Семпл скачати
"Скріншоти"


Срібний реліз (на рейтинг впливає 50% завантаженого)
 Трекер:    Зареєстрований   

Завантажити / скачати мультфільм українською



відео для новачків



 Зареєстрований:   2019-03-27 10:16
 Розмір:   744 MB 
 Оцінка мультфільму:   5.5/10 (Голосів: 2)
   
Інші релізи
eXteSy- 
VIP


З нами з: 06.04.09
Востаннє: 18.10.20
Повідомлень: 2199

2019-03-31 19:38  
А чому "реліз перевірено", а іноземний мульт в розділі: "Українське кіно » Мультфільми і казки"?
bot 
робот


З нами з: 30.09.07
Востаннє: 26.05.05
Повідомлень: 25946

2019-04-01 00:37  
Тему перенесено з Мультфільми і казки до форуму Мультфільми


igor911

Ваш часовий пояс: GMT + 2 Години

Нова тема   Відповісти