13 (Тринадцять) / 13 (2010) Remux 1080p Ukr/Eng | Sub Eng

Нові коментарі

Нова тема   Відповісти
Автор Повідомлення
staf777 
Відео Гуртом - підтримка та поширення
Відео Гуртом - підтримка та поширення


З нами з: 16.11.16
Востаннє: 24.04.19
Повідомлень: 2284

2019-03-27 00:43  
13 (Тринадцять) / 13 (2010) Remux 1080p Ukr/Eng | Sub Eng

13 (Тринадцять) / 13 (2010) Remux 1080p Ukr/Eng | Sub Eng
Оригінальний постер

13 (Тринадцять) / 13 (2010) Remux 1080p Ukr/Eng | Sub Eng
Жанр: драма, трилер
Країна: США



Кінокомпанія: Barbarian Films - Magnet Media Group - Morabito Picture Company
Режисер: Гела Баблуані
Актори: Джейсон Стетхем, Мікі Рурк, Майкл Шеннон, Сем Райлі

Сюжет:
Головний герой, молодий і наївний Вінс, випадково дізнається про швидкий спосіб розбагатіти. Легка справа — точно виконати інструкції, які прийдуть поштою в смугастому конверті. Після того, як передбачуваний одержувач листа помирає від серцевого нападу, парубок вирішується на авантюру. Він видає себе за покійного, не підозрюючи, що вплутується в смертельно небезпечну гру. У гонитві за легкими грошима герой потрапляє на підпільний тоталізатор по російській рулетці. Йому доведеться спустити курок — з 13 чоловік виживе троє.


Тривалість: 01:37:15
Якість: Remux 1080p

Відео:
кодек:
розмір кадру: 1920x1080
бітрейт: 23,9 Mб/с

Аудіо # 1:
мова: українська
переклад: професійний дубльований
кодек: 5.1
бітрейт: 384 кб/с

Аудіо # 2:
мова: англійська
переклад: оригінал
кодек: 5.1
бітрейт: 1509 кб/с

Джерело озвучення:
"Tretyakoff production" на офіційне замовлення "Геміні" у 2010.

Субтитри #1-2:
мова: англійська
тип: програмні (м'які)
формат: *.srt
Info

General
Unique ID : 48817816347612720959278277242639492456 (0x24B9F82CB7DF7FACB5D93E6912362568)
Complete name : S:\» HD українською » Фільми в HD\Драма\13 (2010) Remux 1080p [UKR_ENG] [Hurtom].
Format :
Format version : Version 4
File size : 17.5 GiB
Duration : 1 h 37 min
Overall bit rate mode : Variable
Overall bit rate : 25.8 Mb/s
Movie name : 13 (2010) Remux 1080p [UKR_ENG] [Hurtom]
Encoded date : UTC 2019-04-05 14:26:42
Writing application : v30.1.0 ('Forever And More') 64-bit
Writing library : libebml v1.3.6 + v1.4.9
Cover : Yes
Attachments : cover.jpg / logfile.log

Video
ID : 1
Format : AVC
Format/Info : Advanced Video Codec
Format profile : [email protected]
Format settings : CABAC / 4 Ref Frames
Format settings, CABAC : Yes
Format settings, ReFrames : 4 frames
Codec ID : V_MPEG4/ISO/AVC
Duration : 1 h 37 min
Bit rate mode : Variable
Bit rate : 23.9 Mb/s
Maximum bit rate : 38.0 Mb/s
Width : 1 920 pixels
Height : 1 080 pixels
Display aspect ratio : 16:9
Frame rate mode : Constant
Frame rate : 23.976 (24000/1001) FPS
Standard : NTSC
Color space : YUV
Chroma subsampling : 4:2:0
Bit depth : 8 bits
Scan type : Progressive
Bits/(Pixel*Frame) : 0.481
Stream size : 16.2 GiB (93%)
Default : Yes
Forced : No
Color range : Limited
Color primaries : BT.709
Transfer characteristics : BT.709
Matrix coefficients : BT.709

Audio #1
ID : 2
Format : AC-3
Format/Info : Audio Coding 3
Commercial name : Dolby Digital
Codec ID : A_AC3
Duration : 1 h 37 min
Bit rate mode : Constant
Bit rate : 384 kb/s
Channel(s) : 6 channels
Channel layout : L R C LFE Ls Rs
Sampling rate : 48.0 kHz
Frame rate : 31.250 FPS (1536 SPF)
Bit depth : 16 bits
Compression mode : Lossy
Stream size : 267 MiB (1%)
Title : Дубляж, R5
Language : Ukrainian
Service kind : Complete Main
Default : Yes
Forced : Yes

Audio #2
ID : 3
Format :
Format/Info : Digital Theater Systems
Codec ID : A_DTS
Duration : 1 h 37 min
Bit rate mode : Constant
Bit rate : 1 510 kb/s
Channel(s) : 6 channels
Channel layout : C L R Ls Rs LFE
Sampling rate : 48.0 kHz
Frame rate : 93.750 FPS (512 SPF)
Bit depth : 24 bits
Compression mode : Lossy
Stream size : 1.03 GiB (6%)
Title : English
Language : English
Default : No
Forced : No

Text #1
ID : 4
Format : UTF-8
Codec ID : S_TEXT/UTF8
Codec ID/Info : UTF-8 Plain Text
Duration : 23 min 8 s
Bit rate : 1 b/s
Count of elements : 7
Stream size : 276 Bytes (0%)
Title : English (Forced)
Language : English
Default : No
Forced : No

Text #2
ID : 5
Format : UTF-8
Codec ID : S_TEXT/UTF8
Codec ID/Info : UTF-8 Plain Text
Duration : 1 h 27 min
Bit rate : 28 b/s
Count of elements : 533
Stream size : 18.6 KiB (0%)
Title : English
Language : English
Default : No
Forced : No

Menu
00:00:00.000 : :Глава 01
00:06:20.505 : :Глава 02
00:13:03.240 : :Глава 03
00:17:24.501 : :Глава 04
00:24:03.191 : :Глава 05
00:29:47.243 : :Глава 06
00:34:10.840 : :Глава 07
00:41:50.841 : :Глава 08
00:46:59.942 : :Глава 09
00:52:09.292 : :Глава 10
00:57:30.822 : :Глава 11
01:04:25.736 : :Глава 12
01:11:02.675 : :Глава 13
01:17:35.192 : :Глава 14
01:25:10.146 : :Глава 15
01:31:18.431 : :Глава 16

За українську доріжку подяка пану karvai0
Джерело: &


Золотий реліз (завантажене не впливає на рейтинг)
 Трекер:    Зареєстрований   

Завантажити / скачати фільм українською



відео для новачків



 Зареєстрований:   2019-04-05 18:30
 Розмір:   17.53 GB 
 Оцінка фільму:   8.5/10 (Голосів: 13)
   
bot 
робот


З нами з: 30.09.07
Востаннє: 26.05.05
Повідомлень: 21239

2019-04-05 18:30  
Тему перенесено з Анонси релізів до форуму Фільми в HD


staf777

Ваш часовий пояс: GMT + 2 Години

Нова тема   Відповісти