Правосуддя / Дилема (Сезон 1, серії 1-2 з 10) / The Fix (Season 1, episodes 1-2 of 10) (2019) 720p Ukr/Eng | Sub Eng

Нові коментарі

Нова тема   Відповісти
Автор Повідомлення
Anonymous 







2019-03-26 23:22  
Правосуддя / Дилема (Сезон 1, серії 1-2 з 10)
The Fix (Season 1, episodes 1-2 of 10) (2019) 720p Ukr/Eng | Sub Eng

Правосуддя / Дилема (Сезон 1, серії 1-2 з 10) / The Fix (Season 1, episodes 1-2 of 10) (2019) 720p Ukr/Eng | Sub Eng


Жанр: Драма
Країна: США



Кінокомпанія: Happier in Hollywood, Mandeville Films, ABC Studios
Актори: Робін Танні, Марк Блукас, Адвел Акіннуойє Агбадж, Брекін Меєр.

Сюжет:
Майя Тревіс - окружний прокурор Лос-Анджелеса, бере участь у скандальній справі по обвинуваченню відомого актора в подвійному вбивстві. Зазнавши невдачі, вона переїжджає до Вашингтона і намагається почати нове життя. Через кілька років Майї випадає шанс відновити справедливість, коли той же актор стає головним підозрюваним в іншій справі.


Тривалість: 1 серія: ~ 43 хв. (цілком серій: 2 з 10)
Перелік серій
1.Pilot
2.Revenge
Якість: 720p AMZN
Відео:
кодек:
розмір кадру: 1280 x 720
бітрейт: 2494 кб/с

Аудіо # 1:
мова: українська
переклад: двоголосий закадровий | ColdFilm
кодек: 2.0
бітрейт: 192 кб/с

Аудіо # 2:
мова: англійська
переклад: оригінал
кодек: E- 5.1
бітрейт: 640 кб/с

Субтитри:
мова: англійська
тип: програмні (м'які)
формат: *.srt
Info
v1.4.9

Video
ID : 1
Format : AVC
Format/Info : Advanced Video Codec
Format profile : [email protected]
Format settings : CABAC / 5 Ref Frames
Format settings, CABAC : Yes
Format settings, ReFrames : 5 frames
Codec ID : V_MPEG4/ISO/AVC
Duration : 42 min 59 s
Bit rate : 2 494 kb/s
Width : 1 280 pixels
Height : 720 pixels
Display aspect ratio : 16:9
Frame rate mode : Constant
Frame rate : 23.976 (24000/1001) FPS
Color space : YUV
Chroma subsampling : 4:2:0
Bit depth : 8 bits
Scan type : Progressive
Bits/(Pixel*Frame) : 0.113
Stream size : 767 MiB (75%)
Language : English
Default : Yes
Forced : No
Color range : Limited
Color primaries : BT.709
Transfer characteristics : BT.709
Matrix coefficients : BT.709

Audio #1
ID : 2
Format : AC-3
Format/Info : Audio Coding 3
Commercial name : Dolby Digital
Codec ID : A_AC3
Duration : 42 min 59 s
Bit rate mode : Constant
Bit rate : 192 kb/s
Channel(s) : 2 channels
Channel layout : L R
Sampling rate : 48.0 kHz
Frame rate : 31.250 FPS (1536 SPF)
Bit depth : 16 bits
Compression mode : Lossy
Stream size : 59.0 MiB (6%)
Title : DVO - ColdFilm
Language : Ukrainian
Service kind : Complete Main
Default : Yes
Forced : No

Audio #2
ID : 3
Format : E-AC-3
Format/Info : Enhanced AC-3
Commercial name : Dolby Digital Plus
Codec ID : A_EAC3
Duration : 42 min 59 s
Bit rate mode : Constant
Bit rate : 640 kb/s
Channel(s) : 6 channels
Channel layout : L R C LFE Ls Rs
Sampling rate : 48.0 kHz
Frame rate : 31.250 FPS (1536 SPF)
Compression mode : Lossy
Stream size : 197 MiB (19%)
Language : English
Service kind : Complete Main
Default : No
Forced : No

Text
ID : 4
Format : UTF-8
Codec ID : S_TEXT/UTF8
Codec ID/Info : UTF-8 Plain Text
Duration : 42 min 46 s
Bit rate : 83 b/s
Count of elements : 965
Stream size : 26.2 KiB (0%)
Language : English
Default : No
Forced : No
Скріншоти









Джерело:
Особиста оцінка: 0 - не дивився


Авторський реліз (завантажувати можна без реєстрації)
 Трекер:    Зареєстрований   

Завантажити / скачати серіал українською



відео для новачків



 Зареєстрований:   2019-04-03 11:40
 Розмір:   2.76 GB 
 Оцінка серіалу:   9.9/10 (Голосів: 7)
   
Anonymous 







2019-04-03 11:41  
+ 2 серія
Alien_ua 
Новенький


З нами з: 05.01.17
Востаннє: 10.04.20
Повідомлень: 2

2019-05-05 22:14  
Чи будуть інші серії озвучені?
Anonymous 







2019-05-10 20:16  
Alien_ua написано:
Чи будуть інші серії озвучені?

Невідомо бо студія більше не озвучила.

До того ж АВС закрили серіал після 1 сезону.

Ваш часовий пояс: GMT + 2 Години

Нова тема   Відповісти