Круті часи / Harsh Times (2005) Remux 1080p Ukr/Eng | Sub Ukr/Eng

Нові коментарі

Нова тема   Відповісти
Автор Повідомлення
IronBee 
Поважний учасник


З нами з: 08.02.10
Востаннє: 08.12.19
Повідомлень: 225

2019-03-26 22:55  
Круті часи / Harsh Times (2005) Remux 1080p Ukr/Eng | Sub Ukr/Eng

Круті часи / Harsh Times (2005) Remux 1080p Ukr/Eng | Sub Ukr/Eng


Жанр: кримінальний, драма, трилер
Країна: США



Кінокомпанія: Andrea Sperling Productions, Crave Films, Harsh Times
Режисер: Девід Аєр / David Ayer
Актори: Крістіан Бейл / Christian Bale, Фредді Родріґез / Freddy Rodríguez, Єва Лонгорія / Eva Longoria, Чака Форман / Chaka Forman, Таммі Тралл / Tammy Trull, Джей. Кей. Сіммонс / J.K. Simmons, Майкл Монкс / Michael Monks, Саманта Естебен / Samantha Esteban, Танія Верфілд / Tania Verafield, Ноель Гуліємі / Noel Gugliemi

Сюжет:
Джим Девіс, повернувся з війни назад в Лос-Анджелес, і хоче влаштуватися в поліцію. Але, зустрівши давніх приятелів, він має намір трохи розважитися. Почавши помалу, Джим стартує на повну котушку, нагадавши всім круті часи!


Тривалість: 01:56:14
Якість: Remux 1080p

Відео:
кодек:
розмір кадру: 1920 х 1080
бітрейт: 15 Mб/с

Аудіо # 1:
мова: українська
переклад: двоголосий закадровий
кодек: 2.0
бітрейт: 192 кб/с
приміткат: на проміжку з 1:19:16 по 1:19:30 вставлена якась багатоголоска (таке враження що розтягнули овервойс), так показав 2+2

Аудіо # 2:
мова: англійська
переклад: оригінал
кодек: -XLL 5.1
бітрейт: 4018 кб/с

Субтитри # 1:
мова: українська (Повні)
тип: програмні (м'які)
формат: *.srt

Субтитри # 2:
мова: англійська (Повні)
тип: програмні (м'які)
формат: *.
Info
General
Unique ID : 205352247444389925006129966447813142125 (0x9A7D677CEE2F5EBCB5E3D142CC17266D)
Complete name : D:\Films\Harsh Times (2005) Remux 1080p [Ukr & Eng] [Hurtom].
Format :
Format version : Version 4
File size : 15.6 GiB
Duration : 1 h 56 min
Overall bit rate mode : Variable
Overall bit rate : 19.2 Mb/s
Encoded date : UTC 2019-01-22 16:29:23
Writing application : v30.1.0 ('Forever And More') 64-bit
Writing library : libebml v1.3.6 + v1.4.9
Attachments : ARIAL.TTF / GABRIOLA.TTF / IMPACT.TTF / SSERIFER.FON

Video
ID : 1
Format : AVC
Format/Info : Advanced Video Codec
Format profile : [email protected]
Format settings : CABAC / 4 Ref Frames
Format settings, CABAC : Yes
Format settings, ReFrames : 4 frames
Format settings, GOP : M=3, N=18
Codec ID : V_MPEG4/ISO/AVC
Duration : 1 h 56 min
Bit rate mode : Variable
Bit rate : 15.0 Mb/s
Maximum bit rate : 30.0 Mb/s
Width : 1 920 pixels
Height : 1 080 pixels
Display aspect ratio : 16:9
Frame rate mode : Constant
Frame rate : 23.976 (24000/1001) FPS
Standard : NTSC
Color space : YUV
Chroma subsampling : 4:2:0
Bit depth : 8 bits
Scan type : Progressive
Bits/(Pixel*Frame) : 0.302
Stream size : 12.2 GiB (78%)
Language : English
Default : Yes
Forced : No
Color range : Limited
Color primaries : BT.709
Transfer characteristics : BT.709
Matrix coefficients : BT.709

Audio #1
ID : 2
Format : AC-3
Format/Info : Audio Coding 3
Commercial name : Dolby Digital
Codec ID : A_AC3
Duration : 1 h 56 min
Bit rate mode : Constant
Bit rate : 192 kb/s
Channel(s) : 2 channels
Channel layout : L R
Sampling rate : 48.0 kHz
Frame rate : 31.250 FPS (1536 SPF)
Bit depth : 16 bits
Compression mode : Lossy
Stream size : 160 MiB (1%)
Title : 2.0 192 кб/с двоголосий закадровий 2+2
Language : Ukrainian
Service kind : Complete Main
Default : Yes
Forced : No

Audio #2
ID : 3
Format : XLL
Format/Info : Digital Theater Systems
Commercial name : -HD Master Audio
Codec ID : A_DTS
Duration : 1 h 56 min
Bit rate mode : Variable
Bit rate : 4 018 kb/s
Channel(s) : 6 channels
Channel layout : C L R Ls Rs LFE
Sampling rate : 48.0 kHz
Frame rate : 93.750 FPS (512 SPF)
Bit depth : 24 bits
Compression mode : Lossless
Stream size : 3.26 GiB (21%)
Language : English
Default : No
Forced : No

Text #1
ID : 4
Format : UTF-8
Codec ID : S_TEXT/UTF8
Codec ID/Info : UTF-8 Plain Text
Duration : 1 h 45 min
Bit rate : 94 b/s
Count of elements : 1695
Stream size : 73.4 KiB (0%)
Language : Ukrainian
Default : Yes
Forced : No

Text #2
ID : 5
Format :
Codec ID : S_TEXT/
Codec ID/Info : Advanced Sub Station Alpha
Duration : 1 h 45 min
Bit rate : 153 b/s
Count of elements : 2119
Compression mode : Lossless
Stream size : 119 KiB (0%)
Language : English
Default : No
Forced : No

Menu
00:00:00.000 : en:Chapter 1
00:06:19.504 : en:Chapter 2
00:13:53.041 : en:Chapter 3
00:22:23.842 : en:Chapter 4
00:31:17.959 : en:Chapter 5
00:38:36.523 : en:Chapter 6
00:49:42.479 : en:Chapter 7
00:54:49.828 : en:Chapter 8
01:04:53.723 : en:Chapter 9
01:11:07.513 : en:Chapter 10
01:17:11.502 : en:Chapter 11
01:26:10.791 : en:Chapter 12
01:33:52.919 : en:Chapter 13
01:41:00.304 : en:Chapter 14
01:45:01.962 : en:Chapter 15
01:50:12.272 : en:Chapter 16
Скріншоти




Висловлюю подяку п. karvai0 за синхронізацію доріжки, п. sando7 та ratbol'у за наданий сирий звук і п. Віктор за відредаговані українські субтитри.

Джерело: &
Особиста оцінка: 10 - без зайвих вагань рекомендую всім!


Золотий реліз (завантажене не впливає на рейтинг)
 Трекер:    Зареєстрований   

Завантажити / скачати фільм українською



відео для новачків



 Зареєстрований:   2019-03-26 22:55
 Розмір:   15.6 GB 
 Оцінка фільму:   8.4/10 (Голосів: 9)
   
Інші релізи
   Круті часи / Harsh Times (2005) AVC Ukr/Eng | Sub Ukr/Eng staf777  3 / 0   2.25 GB   2019-06-17 18:06 
   Круті часи / Harsh Times (2005) Ukr | Sub Ukr/Eng patriot2305  2 / 0   1.45 GB   2013-03-09 20:55 
   Круті часи / Harsh Times (2005) Ukr/Eng | Sub Ukr/Eng karvai0  1 / 0   2.18 GB   2013-03-09 01:06 
VitNi 
Свій


З нами з: 05.05.12
Востаннє: 09.12.19
Повідомлень: 128

2019-03-29 21:41  
Ну його нафіг такі важкі фільми...
Краще дурнуваті мильні опери дивитись...
Нафіга таке знімати?

Актори гарні, все гарне - та нафіга ж таке важке...

lastbreath 
Частий відвідувач


З нами з: 02.12.15
Востаннє: 09.12.19
Повідомлень: 45

2019-03-30 12:19  
Дуже класний фільм, рекомендую!

VitNi
Подивися ще Патруль, тобі сподобається ))

Ваш часовий пояс: GMT + 2 Години

Нова тема   Відповісти