Світ майбутнього / Future World (2018) 1080р Ukr/Eng | Sub Eng

Нові коментарі

Нова тема   Відповісти
Автор Повідомлення
staf777 
Відео Гуртом - підтримка та поширення
Відео Гуртом - підтримка та поширення


З нами з: 16.11.16
Востаннє: 18.04.19
Повідомлень: 2258

2019-03-26 20:14  
Світ майбутнього / Future World (2018) 1080р Ukr/Eng | Sub Eng

Світ майбутнього / Future World (2018) 1080р Ukr/Eng | Sub Eng


Жанр: екшн, пригодницький, фантастика
Країна: США



Кінокомпанія: AMBI Group, Black Sparrow Films, Dark Rabbit Productions
Режисер: Джеймс Франко / James Franco, Брюс Тіері Ченґ / Bruce Thierry Cheung
Актори: Джеймс Франко / James Franco, Сукі Вотергаус / Suki Waterhouse, Джефрі Воллберґ / Jeffrey Wahlberg, Марґарита Левіева / Margarita Levieva, Снуп Догг / Snoop Dogg, Твін Шадов / Тwin Shadow, Метод мен / Method Man, Люсі Лью / Lucy Liu, Міла Йовович / Milla Jovovich та інші.

Сюжет:
Постапокаліптичний світ. Усередині пустельного оазису помирає королева. Її син Принц, щоб знайти ліки й урятувати матір, повинен відправитися в дуже небезпечну та ризиковану подорож цим мертвим світом Пустки, у якому повно небезпек. Після того, як хлопчик утік від жорстоких рейдерів на мотоциклах під проводом Воєначальника, Принц зустрів Еш – робота для сексу й убивств Воєначальника. Еш шукає свою душу, і тому хотіла би допомогти хлопцеві. Але все не так просто в ті часи, коли залишки людства, об'єднавшись в угруповання, готові знищити один одного остаточно.


Тривалість: 01:28:08
Якість: 1080р
Відео:
кодек:
розмір кадру: 1920x804
бітрейт: 10.2 Mб/с

Аудіо # 1:
мова: українська
переклад: багатоголосий закадровий
кодек: 2.0 (стерео)
бітрейт: 192 кб/с

Аудіо # 2:
мова: англійська
переклад: оригінал
кодек: 5.1
бітрейт: 1509 кб/с

Субтитри #1-2:
мова: англійська
тип: програмні (м'які)
формат: *.srt
Info
General
Unique ID : 236637330198894847339769219780889164223 (0xB206B1282812E9FF6E88626F1CE639BF)
Complete name : S:\» HD українською » Фільми в HD\Фантастика\Future World (2018) 1080p [UKR_ENG] [Hurtom].
Format :
Format version : Version 4
File size : 7.33 GiB
Duration : 1 h 28 min
Overall bit rate : 11.9 Mb/s
Movie name : Future World (2018) 1080p [UKR_ENG] [Hurtom]
Encoded date : UTC 2019-03-26 16:18:52
Writing application : v30.1.0 ('Forever And More') 64-bit
Writing library : libebml v1.3.6 + v1.4.9
Cover : Yes
Attachments : cover.jpg

Video
ID : 1
Format : AVC
Format/Info : Advanced Video Codec
Format profile : [email protected]
Format settings : CABAC / 5 Ref Frames
Format settings, CABAC : Yes
Format settings, ReFrames : 5 frames
Codec ID : V_MPEG4/ISO/AVC
Duration : 1 h 28 min
Bit rate : 10.2 Mb/s
Width : 1 920 pixels
Height : 804 pixels
Display aspect ratio : 2.40:1
Frame rate mode : Constant
Frame rate : 23.976 (24000/1001) FPS
Color space : YUV
Chroma subsampling : 4:2:0
Bit depth : 8 bits
Scan type : Progressive
Bits/(Pixel*Frame) : 0.276
Stream size : 6.28 GiB (86%)
Default : Yes
Forced : No

Audio #1
ID : 2
Format : AC-3
Format/Info : Audio Coding 3
Commercial name : Dolby Digital
Codec ID : A_AC3
Duration : 1 h 28 min
Bit rate mode : Constant
Bit rate : 192 kb/s
Channel(s) : 2 channels
Channel layout : L R
Sampling rate : 48.0 kHz
Frame rate : 31.250 FPS (1536 SPF)
Bit depth : 16 bits
Compression mode : Lossy
Stream size : 121 MiB (2%)
Title : MVO [2+2], 2.0 [stereo] 192 Kbps
Language : Ukrainian
Service kind : Complete Main
Default : Yes
Forced : Yes

Audio #2
ID : 3
Format :
Format/Info : Digital Theater Systems
Codec ID : A_DTS
Duration : 1 h 28 min
Bit rate mode : Constant
Bit rate : 1 509 kb/s
Channel(s) : 6 channels
Channel layout : C L R Ls Rs LFE
Sampling rate : 48.0 kHz
Frame rate : 93.750 FPS (512 SPF)
Bit depth : 24 bits
Compression mode : Lossy
Stream size : 951 MiB (13%)
Language : English
Default : No
Forced : No

Text #1
ID : 4
Format : UTF-8
Codec ID : S_TEXT/UTF8
Codec ID/Info : UTF-8 Plain Text
Duration : 1 h 23 min
Bit rate : 31 b/s
Count of elements : 797
Stream size : 19.5 KiB (0%)
Title : Full
Language : English
Default : No
Forced : No

Text #2
ID : 5
Format : UTF-8
Codec ID : S_TEXT/UTF8
Codec ID/Info : UTF-8 Plain Text
Duration : 1 h 23 min
Bit rate : 31 b/s
Count of elements : 796
Stream size : 19.5 KiB (0%)
Title : SDH
Language : English
Default : No
Forced : No
Скріншоти




Над доріжкою працювали: Bohdan237, Sando7
Джерело:
Особиста оцінка: 0 - не дивився


 Трекер:    Зареєстрований   

Завантажити / скачати фільм українською



відео для новачків



 Зареєстрований:   2019-03-26 20:14
 Розмір:   7.33 GB 
 Оцінка фільму:   5.6/10 (Голосів: 15)
   
Інші релізи
   Світ майбутнього / Future World (2018) surikmas  2 / 0   745 MB   2019-03-31 23:01 
   Світ майбутнього / Future World (2018) 720р Ukr/Eng | Sub Eng 11FrYkT  13 / 4   4.18 GB   2019-03-19 10:59 
   Світ майбутнього / Future World (2018) antik_2008  29 / 0   1.23 GB   2019-03-18 16:07 
   Світ майбутнього / Future World (2018) AVC Ukr/Eng | Sub Eng Sando7  23 / 1   1.47 GB   2019-03-18 09:57 
hetzendorf 
Відео Гуртом - підтримка та поширення
Відео Гуртом - підтримка та поширення


З нами з: 23.07.15
Востаннє: 19.04.19
Повідомлень: 2034

2019-03-27 01:37  
Здуріти можна, куди Міла Йовович скотилася @[email protected]
Nickolassssssss 
Частий відвідувач


З нами з: 31.05.14
Востаннє: 17.04.19
Повідомлень: 30

2019-03-27 13:04  
Багато сюжетних прогалин + жахлива акторська робота головного актора. Я зрозумів, що цей фільм лайняшка ще коли бачив трейлер, але мене переконали Джеймс Франко та Снуп Догг. Дарма потратив час.
CrashShow 
Новенький


З нами з: 24.08.14
Востаннє: 18.04.19
Повідомлень: 1

2019-03-27 20:43  
Nickolassssssss
Колян, як ніби ти зараз чимось дуже зайнятий Wide grin

Ваш часовий пояс: GMT + 2 Години

Нова тема   Відповісти