The Best Pessimist | Дискографiя (7CD) (2009-2019) [] | Post-Rock / Ambient

Нові коментарі

Нова тема   Відповісти
Автор Повідомлення
kolpavel 
VIP


З нами з: 04.05.14
Востаннє: 23.04.19
Повідомлень: 1246

2019-03-26 19:58  
The Best Pessimist | Дискографiя (7CD) (2009-2019) [] | Post-Rock / Ambient

The Best Pessimist | Дискографiя (7CD) (2009-2019) [] | Post-Rock / Ambient


Стиль: Post-Rock Ambient
Країна, місто: Україна, Одеса
Видавець: The Best Pessimist, 1724 Records

Виконавці:

Сергій Лунов (гітари / клавішнi)
Костянтин Войку (гітари)
Перфілієв Микита (бас)
Микита Захарієвич (ударні)

    Альбоми:
    2009 - Autumn Leaves (EP) (23:06)

    The Best Pessimist | Дискографiя (7CD) (2009-2019) [] | Post-Rock / Ambient


    Треклист:

    01. Autumn Leaves [3:49]
    02. Dreamless [4:12]
    03. Feeling That We Have Lost [4:16]
    04. The Past Comes Tommorow [5:36]
    05. When Time Stood Still [5:14]

    Бітрейт: 1563-1620 кб/с
    Мова: iнструментальнi композицiї
    Видавець: The Best Pessimis
    EAC log
    foobar2000 1.4.3 / Dynamic Range Meter 1.1.1
    log date: 2019-03-25 17:40:02

    --------------------------------------------------------------------------------
    Analyzed: The Best Pessimist / Autumn Leaves (EP)
    --------------------------------------------------------------------------------

    DR Peak RMS Duration Track
    --------------------------------------------------------------------------------
    DR6 -0.21 dB -7.50 dB 3:49 01-Autumn Leaves
    DR5 -0.21 dB -7.19 dB 4:12 02-Dreamless
    DR5 -0.21 dB -6.77 dB 4:16 03-Feeling That We Have Lost
    DR6 -0.20 dB -7.35 dB 5:36 04-The Past Comes Tommorow
    DR7 -0.21 dB -7.87 dB 5:14 05-When Time Stood Still
    --------------------------------------------------------------------------------

    Number of tracks: 5
    Official DR value: DR6

    Samplerate: 44100 Hz
    Channels: 2
    Bits per sample: 24
    Bitrate: 1596 kbps
    Codec:
    ================================================================================
    2009 - I Just Want To Be Your Everything (56:06)

    The Best Pessimist | Дискографiя (7CD) (2009-2019) [] | Post-Rock / Ambient


    Треклист:

    01. Forgive Me [02:17]
    02. Oceanica [05:32]
    03. My Heaven Ends Disaster [05:06]
    04. 6619 Days Of Waiting [06:15]
    05. You [03:30]
    06. Walking With Happiness [05:19]
    07. I Just Want To Be Your Everything [04:22]
    08. Sleep Well [05:22]
    09. Sweet Loneliness [05:04]
    10. I [05:11]
    11. Autumn Leaves (Bonus) [03:49]
    12. Dreamless (Bonus) [04:12]

    Бітрейт: 1514-1649 кб/с
    Мова: iнструментальнi композицiї
    Видавець: The Best Pessimis
    EAC log
    foobar2000 1.4.3 / Dynamic Range Meter 1.1.1
    log date: 2019-03-25 17:40:37

    --------------------------------------------------------------------------------
    Analyzed: The Best Pessimist / I Just Want To Be Your Everything
    --------------------------------------------------------------------------------

    DR Peak RMS Duration Track
    --------------------------------------------------------------------------------
    DR6 -0.21 dB -7.66 dB 2:17 01-Forgive Me
    DR5 -0.21 dB -6.38 dB 5:32 02-Oceanica
    DR5 -0.21 dB -6.18 dB 5:06 03-My Heaven Ends Disaster
    DR6 -0.21 dB -7.65 dB 6:16 04-6619 Days Of Waiting
    DR6 -0.21 dB -8.05 dB 3:30 05-You
    DR5 -0.21 dB -6.31 dB 5:20 06-Walking With Happiness
    DR5 -0.21 dB -6.69 dB 4:23 07-I Just Want To Be Your Everything
    DR5 -0.21 dB -7.23 dB 5:23 08-Sleep Well
    DR6 -0.20 dB -8.57 dB 5:05 09-Sweet Loneliness
    DR6 -0.21 dB -7.82 dB 5:12 10-I
    DR7 -1.20 dB -10.80 dB 3:50 11-Autumn Leaves (Bonus)
    DR7 0.00 dB -9.41 dB 4:13 12-Dreamless (Bonus)
    --------------------------------------------------------------------------------

    Number of tracks: 12
    Official DR value: DR6

    Samplerate: 44100 Hz
    Channels: 2
    Bits per sample: 24
    Bitrate: 1514 kbps
    Codec:
    ================================================================================
    2010 - To Whom It May Concern (52:37)

    The Best Pessimist | Дискографiя (7CD) (2009-2019) [] | Post-Rock / Ambient


    Треклист:

    01. We Are... The Dream [3:55]
    02. Flowers Say It All [6:05]
    03. Lights Of Your Innocence [5:49]
    04. Guardian Angel [4:14]
    05. To Whom It May Concern [5:01]
    06. The Sea, The Night, The Stars, The Light [5:44]
    07. Inner Sense [4:13]
    08. Cold Eye Color [6:58]
    09. Welcome & Farewell [4:05]
    10. Two Against All (Bonus) [06:32]

    Бітрейт: 966-1690 кб/с
    Мова: iнструментальнi композицiї
    Видавець: The Best Pessimis
    EAC log
    foobar2000 1.4.3 / Dynamic Range Meter 1.1.1
    log date: 2019-03-25 17:41:03

    --------------------------------------------------------------------------------
    Analyzed: The Best Pessimist / To Whom It May Concern
    --------------------------------------------------------------------------------

    DR Peak RMS Duration Track
    --------------------------------------------------------------------------------
    DR7 -0.21 dB -9.92 dB 3:55 01-We Are... The Dream
    DR6 -0.21 dB -8.67 dB 6:05 02-Flowers Say It All
    DR7 -0.21 dB -9.42 dB 5:49 03-Lights Of Your Innocence
    DR7 -0.20 dB -9.17 dB 4:14 04-Guardian Angel
    DR10 -0.01 dB -13.54 dB 5:45 06-The Sea, The Night, The Stars, The Light
    DR6 -0.20 dB -8.58 dB 4:13 07-Inner Sense
    DR7 -0.21 dB -9.72 dB 6:58 08-Cold Eye Color
    DR6 -0.21 dB -8.25 dB 4:05 09-Welcome & Farewell
    DR7 0.00 dB -10.52 dB 6:32 10-Two Against All (Bonus)
    --------------------------------------------------------------------------------

    Number of tracks: 9
    Official DR value: DR7

    Samplerate: 44100 Hz
    Channels: 2
    Bits per sample: 24
    Bitrate: 1498 kbps
    Codec:
    ================================================================================

    --------------------------------------------------------------------------------
    Statistics for: 05-To Whom It May Concern
    Number of samples: 14455429
    Duration: 5:01
    --------------------------------------------------------------------------------

    Left Right

    Peak Value: -0.22 dB --- -0.22 dB
    Avg RMS: -8.71 dB --- -9.40 dB
    DR channel: 6.48 dB --- 6.77 dB
    --------------------------------------------------------------------------------

    Official DR Value: DR7

    Samplerate: 48000 Hz
    Channels: 2
    Bits per sample: 16
    Bitrate: 966 kbps
    Codec:
    ================================================================================
    2010 - Two Against All (EP) (20:59)

    The Best Pessimist | Дискографiя (7CD) (2009-2019) [] | Post-Rock / Ambient


    Треклист:

    01. Two Against All [06:33]
    02. Lambent Brume Turning To The Clouds [05:42]
    03. This Silence Will Never Left Us... Goodbye, My Reliance [05:05]
    04. You (re-recorded) [03:38]

    Бітрейт: 1410-1546 кб/с
    Мова: iнструментальнi композицiї
    Видавець: The Best Pessimis
    EAC log
    foobar2000 1.4.3 / Dynamic Range Meter 1.1.1
    log date: 2019-03-25 17:41:17

    --------------------------------------------------------------------------------
    Analyzed: The Best Pessimist / Two Against All (EP)
    --------------------------------------------------------------------------------

    DR Peak RMS Duration Track
    --------------------------------------------------------------------------------
    DR7 -0.21 dB -8.89 dB 6:33 01-Two Against All
    DR7 -0.21 dB -8.89 dB 5:42 02-Lambent Brume Turning To The Clouds
    DR7 -0.21 dB -8.78 dB 5:06 03-This Silence Will Never Left Us... Goodbye, My Reliance
    DR5 -0.21 dB -7.80 dB 3:38 04-You (re-recorded)
    --------------------------------------------------------------------------------

    Number of tracks: 4
    Official DR value: DR6

    Samplerate: 44100 Hz
    Channels: 2
    Bits per sample: 24
    Bitrate: 1514 kbps
    Codec:
    ================================================================================
    2012 - Love is... (01:05:12)

    The Best Pessimist | Дискографiя (7CD) (2009-2019) [] | Post-Rock / Ambient


    Треклист:

    01. Love is... [06:17]
    02. Closeness [08:00]
    03. We Made Our History [05:07]
    04. Above the Fog (Pt.1) [07:20]
    05. Above the Fog (Pt.2) [08:46]
    06. December 2, 1000 [05:57]
    07. The Most Cold Winter [06:28]
    08. Conclusions [12:14]
    09. Autumn Leaves (Drawing The Endless Shore Remix) [05:00]

    Бітрейт: 1328-1569 кб/с
    Мова: iнструментальнi композицiї
    Видавець: The Best Pessimis
    EAC log
    foobar2000 1.4.3 / Dynamic Range Meter 1.1.1
    log date: 2019-03-25 17:41:50

    --------------------------------------------------------------------------------
    Analyzed: The Best Pessimist / Love is...
    --------------------------------------------------------------------------------

    DR Peak RMS Duration Track
    --------------------------------------------------------------------------------
    DR8 -0.21 dB -11.08 dB 6:18 01-Love is...
    DR8 0.00 dB -11.77 dB 8:00 02-Closeness
    DR4 0.00 dB -7.37 dB 5:08 03-We Made Our History
    DR7 -0.68 dB -11.79 dB 7:21 04-Above The Fog (Pt.1)
    DR7 -0.77 dB -12.00 dB 8:46 05-Above The Fog (Pt.2)
    DR5 -0.21 dB -9.04 dB 5:57 06-December 2,1000
    DR8 0.00 dB -11.55 dB 6:29 07-The Most Cold Winter
    DR6 -0.20 dB -8.96 dB 12:14 08-Conclusions
    DR7 -0.21 dB -9.47 dB 5:00 09-Autumn Leaves (DTES Remix)
    --------------------------------------------------------------------------------

    Number of tracks: 9
    Official DR value: DR7

    Samplerate: 44100 Hz
    Channels: 2
    Bits per sample: 24
    Bitrate: 1505 kbps
    Codec:
    ================================================================================
    2015 - The Half-World (52:53)

    The Best Pessimist | Дискографiя (7CD) (2009-2019) [] | Post-Rock / Ambient


    Треклист:

    01. It's Only Words [04:31]
    02. Hearts [05:42]
    03. Call the Ambulance [06:17]
    04. My Long Goodbye [06:12]
    05. Just Remember How We Smiling [04:13]
    06. Make A Wish [05:24]
    07. New Day [05:43]
    08. The Half-World [08:06]
    09. Let's Meet In Our Dreams Tonight [06:49]

    Бітрейт: 666-889 кб/с
    Тривалість:
    Мова: iнструментальнi композицiї
    Видавець: The Best Pessimist
    EAC log
    Lossless Audio Checker 2.0.7 logfile from Monday 25 March 2019 06:02:11 PM

    File: F:\Мои Раздачи\The Best Pessimist\2015 - The Half-World [web]\01 - It's Only Words.
    Result: Clean

    File: F:\Мои Раздачи\The Best Pessimist\2015 - The Half-World [web]\02 - Hearts.
    Result: Clean

    File: F:\Мои Раздачи\The Best Pessimist\2015 - The Half-World [web]\03 - Call the Ambulance.
    Result: Clean

    File: F:\Мои Раздачи\The Best Pessimist\2015 - The Half-World [web]\04 - My Long Goodbye.
    Result: Clean

    File: F:\Мои Раздачи\The Best Pessimist\2015 - The Half-World [web]\05 - Just Remember How We Smiling.
    Result: Clean

    File: F:\Мои Раздачи\The Best Pessimist\2015 - The Half-World [web]\06 - Make A Wish.
    Result: Clean

    File: F:\Мои Раздачи\The Best Pessimist\2015 - The Half-World [web]\07 - New Day.
    Result: Clean

    File: F:\Мои Раздачи\The Best Pessimist\2015 - The Half-World [web]\08 - The Half-World.
    Result: Clean

    File: F:\Мои Раздачи\The Best Pessimist\2015 - The Half-World [web]\09 - Let's Meet In Our Dreams Tonight.
    Result: Clean
    2019 - Part.II Future (32:49)

    The Best Pessimist | Дискографiя (7CD) (2009-2019) [] | Post-Rock / Ambient


    Треклист:

    01. Future [6:51]
    02. Black Alert [7:33]
    03. Fire [7:32]
    04. You Are My Best Friend [6:54]
    05. Dead End [3:59]

    Бітрейт: 1229-1508 кб/с
    Мова: iнструментальнi композицiї
    Видавець: 1724 Records
    EAC log
    foobar2000 1.4.3 / Dynamic Range Meter 1.1.1
    log date: 2019-03-25 17:57:48

    --------------------------------------------------------------------------------
    Analyzed: The Best Pessimist / Part.II Future
    --------------------------------------------------------------------------------

    DR Peak RMS Duration Track
    --------------------------------------------------------------------------------
    DR9 -0.22 dB -12.02 dB 6:51 01-Future
    DR8 -0.22 dB -11.24 dB 7:33 02-Black Alert
    DR10 -0.22 dB -12.01 dB 7:32 03-Fire
    DR7 -0.22 dB -11.17 dB 6:54 04-You Are My Best Friend
    DR12 -3.13 dB -19.69 dB 3:59 05-Dead End
    --------------------------------------------------------------------------------

    Number of tracks: 5
    Official DR value: DR9

    Samplerate: 44100 Hz
    Channels: 2
    Bits per sample: 24
    Bitrate: 1229 kbps
    Codec:
    ================================================================================


Тривалість: 05:03:44
Мова: iнструментальнi композицiї
Аудіо-кодек:
Бітрейт: 666-1690 кб/с
Джерело: трекер

Додаткова інформація:


Золотий реліз (завантажене не впливає на рейтинг)
 Трекер:    Зареєстрований   

Завантажити / скачати українську музику



відео для новачків



 Зареєстрований:   2019-03-26 21:00
 Розмір:   2.9 GB 
 Оцінка музики:   10/10 (Голосів: 3)
   
Neytreenor 
Відео Гуртом - запис з ТБ
Відео Гуртом - запис з ТБ


З нами з: 03.04.11
Востаннє: 23.04.19
Повідомлень: 1830

2019-03-26 21:16  
kolpavel написано:
iнструменьальнi композицiї

kolpavel 
VIP


З нами з: 04.05.14
Востаннє: 23.04.19
Повідомлень: 1246

2019-03-26 21:19  
Neytreenor, мерсi.

Ну і звичайно щира подяка Evgenius1986 з паралельного всесвiту, за підготовку даного релізу.

Ваш часовий пояс: GMT + 2 Години

Нова тема   Відповісти