Бамблбі / Bumblebee (2018) Remux 1080p Ukr/Eng | Sub Ukr/Eng

Нові коментарі

Нова тема   Відповісти
Автор Повідомлення
Anonymous 







2019-03-26 16:22  
Бамблбі / Bumblebee (2018) Remux 1080p Ukr/Eng | Sub Ukr/Eng

Бамблбі / Bumblebee (2018) Remux 1080p Ukr/Eng | Sub Ukr/Eng


Жанр: бойовик, пригодницький, фантастика
Країна: США





Кінокомпанія: Paramount Pictures, Di Bonaventura Pictures, Hasbro Studios
Режисер: Тревіс Найт
Актори: Ділан О'Брайен, Гейлі Стайнфелд, Джастін Теру, Джон Сіна, Анджела Бассетт, Памела Адлон, Грей ДеЛісл, Пітер Каллен, Кеннет Чої

Сюжет:
У 1987 році на Землю потрапила одна істота, яка тут бути не повинна. Його звуть Бамблбі і він трансформер – робот із іншої планети, який може набувати форми земних машин. На батьківщині деякі його називають злочинцем, через що йому довелося бігти на Землю. Так Бамблбі потрапив до одного з каліфорнійських містечок біля узбережжя океану. Прихистила його вісімнадцятирічна дівчина Чарлі, яка, як і багато підлітків, намагається знайти своє місце в цьому світі. І разом дівчина та трансформер стануть справжньою родиною. На жаль, за Бамблбі буде йти хвіст, який хоче покарати злочинця. І тоді він зобов'язаний захищати Землю та людство від нових ворогів.


Тривалість: 01:53:53
Якість: Remux

Відео:
кодек:
розмір кадру: 1920x1080
бітрейт: 26,8 Мб/с

Аудіо # 1:
мова: українська
переклад: професійний дубльований
кодек: 2.0 [стерео]
бітрейт: 192 кб/с

Аудіо # 2:
мова: англійська
переклад: оригінал
кодек: 5.1
бітрейт: 640 кб/с

Аудіо # 3:
мова: англійська
переклад: оригінал
кодек: -HD MA 7.1
бітрейт: 3946 кб/с

Аудіо # 4:
мова: англійська
переклад: оригінал
кодек: TrueHD 7.1
бітрейт: 5376 кб/с

Субтитри (Full, Forced):
мова: українська
тип: програмні (м'які)
формат: *.srt

Субтитри (Full, SDH):
мова: англійська
тип: програмні (м'які)
формат: *.srt
Info
Код:
General
Complete name                            : Bumblebee (2018) [UKR_ENG] Remux [ViDeO_Hurtom].
Format                                   :
Format version                           : Version 4
File size                                : 29.0 GiB
Duration                                 : 1 h 53 min
Overall bit rate mode                    : Variable
Overall bit rate                         : 36.4 Mb/s
Movie name                               : Bumblebee (2018) [UKR_ENG] Remux [ViDeO_Hurtom]
Encoded date                             : UTC 2019-04-01 10:19:56
Writing application                      : v30.1.0 ('Forever And More') 64-bit
Writing library                          : libebml v1.3.6 + v1.4.9

Video
ID                                       : 1
Format                                   : AVC
Format/Info                              : Advanced Video Codec
Format profile                           : [email protected]
Format settings                          : CABAC / 4 Ref Frames
Format settings, CABAC                   : Yes
Format settings, RefFrames               : 4 frames
Codec ID                                 : V_MPEG4/ISO/AVC
Duration                                 : 1 h 53 min
Bit rate mode                            : Variable
Bit rate                                 : 26.8 Mb/s
Maximum bit rate                         : 29.0 Mb/s
Width                                    : 1 920 pixels
Height                                   : 1 080 pixels
Display aspect ratio                     : 16:9
Frame rate mode                          : Constant
Frame rate                               : 23.976 (24000/1001) FPS
Color space                              : YUV
Chroma subsampling                       : 4:2:0
Bit depth                                : 8 bits
Scan type                                : Progressive
Bits/(Pixel*Frame)                       : 0.540
Stream size                              : 21.4 GiB (74%)
Language                                 : English
Default                                  : Yes
Forced                                   : No

Audio #1
ID                                       : 2
Format                                   : AC-3
Format/Info                              : Audio Coding 3
Commercial name                          : Dolby Digital
Codec ID                                 : A_AC3
Duration                                 : 1 h 53 min
Bit rate mode                            : Constant
Bit rate                                 : 192 kb/s
Channel(s)                               : 2 channels
Channel layout                           : L R
Sampling rate                            : 48.0 kHz
Frame rate                               : 31.250 FPS (1536 SPF)
Bit depth                                : 16 bits
Compression mode                         : Lossy
Stream size                              : 156 MiB (1%)
Title                                    : , 2 ch, 192 Кбт/с
Language                                 : Ukrainian
Service kind                             : Complete Main
Default                                  : Yes
Forced                                   : No

Audio #2
ID                                       : 3
Format                                   : AC-3
Format/Info                              : Audio Coding 3
Commercial name                          : Dolby Digital
Codec ID                                 : A_AC3
Duration                                 : 1 h 53 min
Bit rate mode                            : Constant
Bit rate                                 : 640 kb/s
Channel(s)                               : 6 channels
Channel layout                           : L R C LFE Ls Rs
Sampling rate                            : 48.0 kHz
Frame rate                               : 31.250 FPS (1536 SPF)
Bit depth                                : 16 bits
Compression mode                         : Lossy
Stream size                              : 521 MiB (2%)
Title                                    : , 6 ch, 640 Кбт/с
Language                                 : English
Service kind                             : Complete Main
Default                                  : No
Forced                                   : No

Audio #3
ID                                       : 4
Format                                   : XLL
Format/Info                              : Digital Theater Systems
Commercial name                          : -HD Master Audio
Codec ID                                 : A_DTS
Duration                                 : 1 h 53 min
Bit rate mode                            : Variable
Bit rate                                 : 3 946 kb/s
Channel(s)                               : 8 channels
Channel layout                           : C L R LFE Lb Rb Lss Rss
Sampling rate                            : 48.0 kHz
Frame rate                               : 93.750 FPS (512 SPF)
Bit depth                                : 24 bits
Compression mode                         : Lossless
Stream size                              : 3.14 GiB (11%)
Title                                    : -HD MA, 8 ch, 3946 Кбт/с
Language                                 : English
Default                                  : No
Forced                                   : No

Audio #4
ID                                       : 5
Format                                   : MLP FBA 16-ch
Format/Info                              : Meridian Lossless Packing FBA with 16-channel presentation
Commercial name                          : Dolby TrueHD with Dolby Atmos
Codec ID                                 : A_TRUEHD
Duration                                 : 1 h 53 min
Bit rate mode                            : Variable
Bit rate                                 : 4 736 kb/s
Maximum bit rate                         : 7 761 kb/s
Channel(s)                               : 8 channels
Channel layout                           : L R C LFE Ls Rs Lb Rb
Sampling rate                            : 48.0 kHz
Frame rate                               : 1 200.000 FPS (40 SPF)
Compression mode                         : Lossless
Stream size                              : 3.77 GiB (13%)
Title                                    : TrueHD, 8 ch, 5376 Кбт/с
Language                                 : English
Default                                  : No
Forced                                   : No
Number of dynamic objects                : 11
Bed channel count                        : 1 channel
Bed channel configuration                : LFE

Text #1
ID                                       : 6
Format                                   : UTF-8
Codec ID                                 : S_TEXT/UTF8
Codec ID/Info                            : UTF-8 Plain Text
Duration                                 : 1 h 48 min
Bit rate                                 : 67 b/s
Count of elements                        : 1189
Stream size                              : 53.9 KiB (0%)
Title                                    : Full
Language                                 : Ukrainian
Default                                  : No
Forced                                   : No

Text #2
ID                                       : 7
Format                                   : UTF-8
Codec ID                                 : S_TEXT/UTF8
Codec ID/Info                            : UTF-8 Plain Text
Duration                                 : 1 h 45 min
Bit rate                                 : 1 b/s
Count of elements                        : 29
Stream size                              : 1.15 KiB (0%)
Title                                    : Forced
Language                                 : Ukrainian
Default                                  : Yes
Forced                                   : No

Text #3
ID                                       : 8
Format                                   : UTF-8
Codec ID                                 : S_TEXT/UTF8
Codec ID/Info                            : UTF-8 Plain Text
Duration                                 : 1 h 48 min
Bit rate                                 : 43 b/s
Count of elements                        : 1207
Stream size                              : 34.4 KiB (0%)
Title                                    : Full
Language                                 : English
Default                                  : No
Forced                                   : No

Text #4
ID                                       : 9
Format                                   : UTF-8
Codec ID                                 : S_TEXT/UTF8
Codec ID/Info                            : UTF-8 Plain Text
Duration                                 : 1 h 48 min
Bit rate                                 : 54 b/s
Count of elements                        : 1637
Stream size                              : 43.5 KiB (0%)
Title                                    : SDH
Language                                 : English
Default                                  : No
Forced                                   : No
Скріншоти








Підтримати купівлю інших фільмів можна тут.


Джерело: &
Особиста оцінка: 9 - давно не бачив настільки якісне кіно


Золотий реліз (завантажене не впливає на рейтинг)
 Трекер:    Зареєстрований   

Завантажити / скачати фільм українською



відео для новачків



 Зареєстрований:   2019-04-01 14:29
 Розмір:   28.98 GB 
 Оцінка фільму:   9.6/10 (Голосів: 21)
   
Інші релізи
   Бамблбі / Bumblebee (2018) 1080p H.265 Ukr/Eng | Sub Ukr/Eng -Star-Lord-  14 / 0   8.45 GB   2019-04-29 20:08 
   Бамблбі / Bumblebee (2018) Ukr/Eng antik_2008  21 / 0   2.15 GB   2019-04-01 15:39 
   Бамблбі / Bumblebee (2018) 1080p Ukr/Eng | Sub Ukr/Eng antik_2008  9 / 0   15.49 GB   2019-04-01 14:44 
   Бамблбі / Bumblebee (2018) UHD Remux 4K 2160p HDR H.265 Ukr/Eng | Sub Ukr/Eng antik_2008  10 / 0   43.91 GB   2019-04-01 14:19 
   Бамблбі / Bumblebee (2018) 720p Ukr/Eng | Sub Ukr/Eng 11FrYkT  13 / 0   7.54 GB   2019-03-30 15:20 
   Бамблбі / Bumblebee (2018) AVC Ukr | Sub Ukr/Eng 11FrYkT  4 / 0   2.36 GB   2019-03-30 15:13 
   Бамблбі / Bumblebee (2018) Ukr/Eng | Sub Ukr/Eng uafilm.tv  4 / 0   1.47 GB   2019-03-30 01:24 
Anonymous 







2019-04-01 14:29  
Реліз оновлено. Додав субтитри і кращий звук
bogdanich 
VIP


З нами з: 24.10.13
Востаннє: 11.12.19
Повідомлень: 581

2019-04-02 01:57  
Добра, по-дитячому проста історія. Дуже схожа на мультфільм "Сталевий гігант". Чудова гра Гейлі Стайнфелд. Але все інше якось занадто невимушено виглядає. Не вистачає тої епічності, що була у першому фільмі. Ще не сподобався мультяшний Кібертрон.
8/10.
Дякую!

Ваш часовий пояс: GMT + 2 Години

Нова тема   Відповісти