Музичний фільм "Виступає ансамбль Смерічка" (1975) 720p

Нові коментарі

Нова тема   Відповісти
Автор Повідомлення
profs 
Новенький


З нами з: 21.01.13
Востаннє: 09.11.19
Повідомлень: 4

2019-03-26 12:40  
Музичний фільм «Виступає ансамбль Смерічка» (1975) 720p


Стиль: Pop
Країна, місто: Україна
Виконавці: Ансамбль «Смерічка»

Виробник: Естонський телефільм (Таллінн)
Рік: 1975
Директор: Тійю Сеарестік
Режисер: Вірве Коппель
Автори сценарію: Вірве Коппель, Енне Хіон
Звукорежисери: Яак Еллінг, Василь Стріхович
Оператор: Белло Аруоя

Тривалість: 00:25:55
Відео:
кодек:
розмір кадру: 920 х 720
бітрейт: 1500 кб/с

Аудіо:
мова: українська, російська
кодек: 2 ch
бітрейт: 130 кб/с
Трекліст

  1. Попурі з пісень В. Івасюка та Л. Дутковського (в обробці Л. Дутковського)
  2. Незрівняний світ краси (муз. Л. Дутковського, сл. А. Фартушняка)
  3. Ой, чия ж то крайня хатка (муз. Г. Скупинського, сл. народні)
  4. Я — твоє крило (муз. В. Івасюка, сл. Р. Кудлика)
  5. Ой, чорна я си, чорна (укр. народна пісня в обробці Л. Дутковського)
  6. Горянка (муз. Л. Дутковського, сл. М. Леонтюка та С. Борисенка)
Скріншоти


Info

General
Format :
Format version : Version 2
File size : 304 MiB
Duration : 25 min 55 s
Overall bit rate : 1 641 kb/s
Encoded date : UTC 2019-03-26 09:52:58
Writing application : v31.0.0 ('Dolores In A Shoestand') 64-bit
Writing library : libebml v1.3.6 + v1.4.9

Video
ID : 1
Format : AVC
Format/Info : Advanced Video Codec
Format profile : [email protected]
Format settings, CABAC : No
Format settings, RefFrames : 2 frames
Codec ID : V_MPEG4/ISO/AVC
Duration : 25 min 55 s
Bit rate : 1 509 kb/s
Width : 920 pixels
Height : 720 pixels
Display aspect ratio : 1.278
Frame rate mode : Constant
Frame rate : 25.000 FPS
Color space : YUV
Chroma subsampling : 4:2:0
Bit depth : 8 bits
Scan type : Progressive
Bits/(Pixel*Frame) : 0.091
Stream size : 280 MiB (92%)
Default : Yes
Forced : No
Color range : Limited
Color primaries : BT.709
Transfer characteristics : BT.709
Matrix coefficients : BT.709

Audio
ID : 2
Format :
Format/Info : Advanced Audio Codec
Format profile : LC
Codec ID : A_AAC
Duration : 25 min 55 s
Bit rate : 130 kb/s
Channel(s) : 2 channels
Channel positions : Front: L R
Sampling rate : 48.0 kHz
Frame rate : 46.875 FPS (1024 SPF)
Compression mode : Lossy
Delay relative to video : -40 ms
Stream size : 24.0 MiB (8%)
Language : Ukrainian
Default : Yes
Forced : No
Особиста оцінка: 10 - без зайвих вагань рекомендую всім!

Додаткова інформація:
Відео взято з сайту архіву Естонського телебачення.
Ріп — як є, без жодних модифікацій контенту (лише перегнано в контейнер ).
Якість доволі пристойна, лише в русі "кубить". Кольори насичені.
Порівняти з ріпом з УТР не можу, бо його ніхто тут не роздає (один сід "висить", але реальне не роздає).
Якщо порівнювати із записом УТР, що є на Youtube, то пропонований варіант кращий, бо:
  • має яскраві природні кольори (наскільки це було можливо на тодішній кіноплівці)
  • відчутно менше артефактів (подряпин тощо)

Також варто відмітити, що повнота кадру не співпадає – див. скріншоти:
порівняння


Золотий реліз (завантажене не впливає на рейтинг)
 Трекер:    Зареєстрований   

Завантажити / скачати кліп українською



відео для новачків



 Зареєстрований:   2019-03-26 12:40
 Розмір:   304 MB 
 Оцінка кліпу:   10/10 (Голосів: 8)
   
Ваш часовий пояс: GMT + 2 Години

Нова тема   Відповісти