Свята Агата / St. Agatha (2018) 1080p H.265 Ukr(Mic)/Eng | Sub Eng

Нові коментарі

Нова тема   Відповісти
Автор Повідомлення
-Star-Lord- 
VIP


З нами з: 09.08.18
Востаннє: 24.04.19
Повідомлень: 737

2019-03-24 19:25  
Свята Агата / St. Agatha (2018) 1080p H.265 Ukr(Mic)/Eng | Sub Eng

Свята Агата / St. Agatha (2018) 1080p H.265 Ukr(Mic)/Eng | Sub Eng


Жанр: драма, трилер, жахи
Країна: США
Кінокомпанія: The Outside Writers
Режисер: Даррен Лінн Боусман
Актори: Сабріна Керн, Керолін Геннесі, Кортні Хелверсон, Ліндсей Сейм, Ханна Файрман, Шоун Флетчер, Сет Майклс, Трін Міллер, Джейсон Уорнер Сміт, Майлс Кренфорд

Сюжет:
Молода дівчина Мері живе в дуже цікавий час – 50-ті роки ХХ століття. Тоді на кожному кроці можна було зустріти авантюристів, які по-різному намагалися знайти користь від цього життя. Такою була до деякого часу Мері, поки не завагітніла. Щоб трохи заспокоїти темп життя та спокійно народити дитину, дівчина вирішила зупинитися в одному з монастирів у маленькому містечку у штаті Джорджія. Вельми привітний прийом із часом виявився тільки маскою, адже в цьому місці існують дуже суворі правила... Черниці – це зовсім не безневинні люди, й одному Богу відомо, що у них на думці. Мері вибрала явно не найкраще місце для відпочинку, адже звідси за своєю волею ще ніхто та ніколи не йшов.

Тривалість: 01:39:23
Якість:
Відео:
кодек: H.265 (HEVC)
розмір кадру: 1920 x 800
бітрейт: 6 003 кб/с
бітова глибина: 10 біт
Увага! Перед завантаженням переконайтесь, що ваш пристрій відтворення (та/або ПЗ) підтримує H.265 (HEVC)

Аудіо # 1:
мова: українська
переклад: ~85% професійний псевдодубльований до 01:26:00, в кінці - 15%(13 хв.) багатоголосий закадровий | Mic
кодек: AC-3 2.0
бітрейт: 192 кб/с

Аудіо # 2:
мова: англійська
переклад: оригінал
кодек: 5.1
бітрейт: 1510 кб/с

Субтитри # 1:
мова: англійська (Full),
тип: програмні (м'які)
формат: *.srt


Info
Код:
General
Unique ID                                : 160262512916813379864958881924379038893 (0x78916FF033693397BA19979F9987D4AD)
Complete name                            : F:\Video\St. Agatha (2018) 1080p H.265 [UKR_ENG] [Hurtom].
Format                                   :
Format version                           : Version 4 / Version 2
File size                                : 5.35 GiB
Duration                                 : 1 h 39 min
Overall bit rate                         : 7 706 kb/s
Movie name                               : St. Agatha (2018)
Encoded date                             : UTC 2019-03-24 11:53:01
Writing application                      : v20.0.0 ('I Am The Sun') 64-bit
Writing library                          : libebml v1.3.5 + v1.4.8
Cover                                    : Yes
Attachments                              : Cover.jpg

Video
ID                                       : 1
Format                                   : HEVC
Format/Info                              : High Efficiency Video Coding
Format profile                           : Main [email protected]@High
Codec ID                                 : V_MPEGH/ISO/HEVC
Duration                                 : 1 h 39 min
Bit rate                                 : 6 003 kb/s
Width                                    : 1 920 pixels
Height                                   : 800 pixels
Display aspect ratio                     : 2.40:1
Frame rate mode                          : Constant
Frame rate                               : 25.000 FPS
Color space                              : YUV
Chroma subsampling                       : 4:2:0
Bit depth                                : 10 bits
Bits/(Pixel*Frame)                       : 0.156
Stream size                              : 4.17 GiB (78%)
Title                                    : St. Agatha (2018)
Language                                 : English
Default                                  : Yes
Forced                                   : No
Color range                              : Limited
Color primaries                          : BT.709
Transfer characteristics                 : BT.709
Matrix coefficients                      : BT.709

Audio #1
ID                                       : 2
Format                                   : AC-3
Format/Info                              : Audio Coding 3
Codec ID                                 : A_AC3
Duration                                 : 1 h 38 min
Bit rate mode                            : Constant
Bit rate                                 : 192 kb/s
Channel(s)                               : 2 channels
Channel positions                        : Front: L R
Sampling rate                            : 48.0 kHz
Frame rate                               : 31.250 FPS (1536 SPF)
Bit depth                                : 16 bits
Compression mode                         : Lossy
Stream size                              : 136 MiB (2%)
Title                                    : БЗ - MIC
Language                                 : Ukrainian
Service kind                             : Complete Main
Default                                  : Yes
Forced                                   : Yes

Audio #2
ID                                       : 3
Format                                   :
Format/Info                              : Digital Theater Systems
Codec ID                                 : A_DTS
Duration                                 : 1 h 39 min
Bit rate mode                            : Constant
Bit rate                                 : 1 509 kb/s
Channel(s)                               : 6 channels
Channel positions                        : Front: L C R, Side: L R, LFE
Sampling rate                            : 48.0 kHz
Frame rate                               : 93.750 FPS (512 SPF)
Bit depth                                : 16 bits
Compression mode                         : Lossy
Stream size                              : 1.05 GiB (20%)
Title                                    : Original
Language                                 : English
Default                                  : No
Forced                                   : No

Text
ID                                       : 4
Format                                   : UTF-8
Codec ID                                 : S_TEXT/UTF8
Codec ID/Info                            : UTF-8 Plain Text
Duration                                 : 1 h 37 min
Bit rate                                 : 42 b/s
Count of elements                        : 1233
Stream size                              : 30.3 KiB (0%)
Title                                    : Full
Language                                 : English
Default                                  : Yes
Forced                                   : No

Menu
00:00:00.000                             : en:1
00:12:52.242                             : en:2
00:25:00.345                             : en:3
00:37:26.048                             : en:4
00:47:01.114                             : en:5
00:56:38.741                             : en:6
01:09:28.801                             : en:7
01:22:35.379                             : en:8
01:30:16.465                             : en:9
01:39:00.322                             : en:10
Світлини





Джерело: &
Особиста оцінка: 0 - не дивився


 Трекер:    Зареєстрований   

Завантажити / скачати фільм українською



відео для новачків



 Зареєстрований:   2019-03-24 19:25
 Розмір:   5.35 GB 
 Оцінка фільму:   5/10 (Голосів: 1)
   
Інші релізи
   Свята Агата / St. Agatha (2018) Remux 1080p Ukr/Eng | Sub Eng staf777  9 / 0   14.38 GB   2019-04-21 12:06 
   Свята Агата / St. Agatha (2018) AVC Ukr/Eng | Eng 11FrYkT  29 / 1   1.87 GB   2019-04-21 09:02 
   Свята Агата / St. Agatha (2018) 720p Ukr/Eng | Eng 11FrYkT  10 / 0   3.7 GB   2019-04-21 09:01 
   Свята Агата / St. Agatha (2018) 1080p Ukr(Mic)/Eng legos25  5 / 0   3.72 GB   2019-03-14 23:46 
Siegfried 
VIP


З нами з: 01.11.11
Востаннє: 23.04.19
Повідомлень: 251

2019-03-25 12:52  
"Тоді на кожному кроці можна було зустріти авантюристів, які по-різному намагалися знайти користь від цього життя. Такою була до деякого часу Мері, поки не завагітніла. "

Wide grin

Дівчатам на замітку: авантюризм може призводити до вагітності.

P.S.: схоже, що жахороби почали активно мусолити тему проклятих монастирів і черниць.

Ваш часовий пояс: GMT + 2 Години

Нова тема   Відповісти