Свята Агата / St. Agatha (2018) 1080p H.265 Ukr/Eng | Sub Eng

Нові коментарі

Нова тема   Відповісти
Автор Повідомлення
Anonymous 







2019-03-24 18:25  
Свята Агата / St. Agatha (2018) 1080p H.265 Ukr/Eng | Sub Eng

Свята Агата / St. Agatha (2018) 1080p H.265 Ukr/Eng | Sub Eng


Жанр: драма, трилер, жахи
Країна: США
Кінокомпанія: The Outside Writers
Режисер: Даррен Лінн Боусман
Актори: Сабріна Керн, Керолін Геннесі, Кортні Хелверсон, Ліндсей Сейм, Ханна Файрман, Шоун Флетчер, Сет Майклс, Трін Міллер, Джейсон Уорнер Сміт, Майлс Кренфорд

Сюжет:
Молода дівчина Мері живе в дуже цікавий час – 50-ті роки ХХ століття. Тоді на кожному кроці можна було зустріти авантюристів, які по-різному намагалися знайти користь від цього життя. Такою була до деякого часу Мері, поки не завагітніла. Щоб трохи заспокоїти темп життя та спокійно народити дитину, дівчина вирішила зупинитися в одному з монастирів у маленькому містечку у штаті Джорджія. Вельми привітний прийом із часом виявився тільки маскою, адже в цьому місці існують дуже суворі правила... Черниці – це зовсім не безневинні люди, й одному Богу відомо, що у них на думці. Мері вибрала явно не найкраще місце для відпочинку, адже звідси за своєю волею ще ніхто та ніколи не йшов.

Тривалість: 01:39:23
Якість:
Відео:
кодек: H.265 (HEVC)
розмір кадру: 1920 x 800
бітрейт: 6 003 кб/с
бітова глибина: 10 біт
Увага! Перед завантаженням переконайтесь, що ваш пристрій відтворення (та/або ПЗ) підтримує H.265 (HEVC)

Аудіо # 1:
мова: українська
переклад: професійний псевдодубльований
кодек: 5.1
бітрейт: 384 кб/с

Аудіо # 2:
мова: англійська
переклад: оригінал
кодек: 5.1
бітрейт: 1510 кб/с

Субтитри # 1:
мова: англійська (Full),
тип: програмні (м'які)
формат: *.srt


Info
Код:
General
Unique ID                                : 113859356287347819027339549017332424631 (0x55A883ADE645CAB7FB789BC2765A9FB7)
Complete name                            : F:\Video\St. Agatha (2018) 1080p H.265 [UKR_ENG] [Hurtom].
Format                                   :
Format version                           : Version 4
File size                                : 5.48 GiB
Duration                                 : 1 h 39 min
Overall bit rate                         : 7 899 kb/s
Movie name                               : St. Agatha (2018)
Encoded date                             : UTC 2019-05-03 16:03:47
Writing application                      : v20.0.0 ('I Am The Sun') 64-bit
Writing library                          : libebml v1.3.5 + v1.4.8
Cover                                    : Yes
Attachments                              : Cover.jpg

Video
ID                                       : 1
Format                                   : HEVC
Format/Info                              : High Efficiency Video Coding
Format profile                           : Main [email protected]@High
Codec ID                                 : V_MPEGH/ISO/HEVC
Duration                                 : 1 h 39 min
Bit rate                                 : 6 003 kb/s
Width                                    : 1 920 pixels
Height                                   : 800 pixels
Display aspect ratio                     : 2.40:1
Frame rate mode                          : Constant
Frame rate                               : 25.000 FPS
Color space                              : YUV
Chroma subsampling                       : 4:2:0
Bit depth                                : 10 bits
Bits/(Pixel*Frame)                       : 0.156
Stream size                              : 4.17 GiB (76%)
Title                                    : St. Agatha (2018)
Language                                 : English
Default                                  : Yes
Forced                                   : No
Color range                              : Limited
Color primaries                          : BT.709
Transfer characteristics                 : BT.709
Matrix coefficients                      : BT.709

Audio #1
ID                                       : 2
Format                                   : AC-3
Format/Info                              : Audio Coding 3
Commercial name                          : Dolby Digital
Codec ID                                 : A_AC3
Duration                                 : 1 h 39 min
Bit rate mode                            : Constant
Bit rate                                 : 384 kb/s
Channel(s)                               : 6 channels
Channel layout                           : L R C LFE Ls Rs
Sampling rate                            : 48.0 kHz
Frame rate                               : 31.250 FPS (1536 SPF)
Bit depth                                : 16 bits
Compression mode                         : Lossy
Stream size                              : 273 MiB (5%)
Title                                    : ПД - iTunes - 5.1 @ 384 kbps
Language                                 : Ukrainian
Service kind                             : Complete Main
Default                                  : Yes
Forced                                   : Yes

Audio #2
ID                                       : 3
Format                                   :
Format/Info                              : Digital Theater Systems
Codec ID                                 : A_DTS
Duration                                 : 1 h 39 min
Bit rate mode                            : Constant
Bit rate                                 : 1 509 kb/s
Channel(s)                               : 6 channels
Channel layout                           : C L R Ls Rs LFE
Sampling rate                            : 48.0 kHz
Frame rate                               : 93.750 FPS (512 SPF)
Bit depth                                : 16 bits
Compression mode                         : Lossy
Stream size                              : 1.05 GiB (19%)
Title                                    : Original
Language                                 : English
Default                                  : No
Forced                                   : No

Text
ID                                       : 4
Format                                   : UTF-8
Codec ID                                 : S_TEXT/UTF8
Codec ID/Info                            : UTF-8 Plain Text
Duration                                 : 1 h 37 min
Bit rate                                 : 42 b/s
Count of elements                        : 1233
Stream size                              : 30.3 KiB (0%)
Title                                    : Full
Language                                 : English
Default                                  : Yes
Forced                                   : No

Menu
00:00:00.000                             : en:Chapter 01
00:09:34.320                             : en:Chapter 02
00:17:56.240                             : en:Chapter 03
00:23:53.640                             : en:Chapter 04
00:35:51.280                             : en:Chapter 05
00:39:35.480                             : en:Chapter 06
00:47:17.440                             : en:Chapter 07
00:55:06.600                             : en:Chapter 08
01:04:19.000                             : en:Chapter 09
01:12:05.760                             : en:Chapter 10
01:19:07.760                             : en:Chapter 11
01:27:49.040                             : en:Chapter 12
01:38:55.600                             : en:Chapter 13
Світлини





Джерело: &
Особиста оцінка: 0 - не дивився


 Трекер:    Зареєстрований   

Завантажити / скачати фільм українською



відео для новачків



 Зареєстрований:   2019-05-05 22:06
 Розмір:   5.48 GB 
 Оцінка фільму:   7.2/10 (Голосів: 5)
   
Інші релізи
   Свята Агата / St. Agatha (2018) Remux 1080p Ukr/Eng | Sub Eng staf777  1 / 0   14.38 GB   2019-04-21 11:06 
   Свята Агата / St. Agatha (2018) AVC Ukr/Eng | Eng 11FrYkT  3 / 0   1.87 GB   2019-04-21 08:02 
   Свята Агата / St. Agatha (2018) 720p Ukr/Eng | Eng 11FrYkT  0 / 0   3.7 GB   2019-04-21 08:01 
Siegfried 
VIP


З нами з: 01.11.11
Востаннє: 06.12.19
Повідомлень: 286

2019-03-25 11:52  
"Тоді на кожному кроці можна було зустріти авантюристів, які по-різному намагалися знайти користь від цього життя. Такою була до деякого часу Мері, поки не завагітніла. "

Wide grin

Дівчатам на замітку: авантюризм може призводити до вагітності.

P.S.: схоже, що жахороби почали активно мусолити тему проклятих монастирів і черниць.

Anonymous 







2019-05-05 22:07  
Замінив звук на -> 5.1 з

Ваш часовий пояс: GMT + 2 Години

Нова тема   Відповісти