Лондонські поля / London Fields (2018) 1080p H.265 Ukr/Eng | Sub Eng

Нові коментарі

Нова тема   Відповісти
Автор Повідомлення
-Star-Lord- 
VIP


З нами з: 09.08.18
Востаннє: 23.04.19
Повідомлень: 737

2019-03-24 19:19  
Лондонські поля / London Fields (2018) 1080p H.265 Ukr/Eng | Sub Eng

Лондонські поля / London Fields (2018) 1080p H.265 Ukr/Eng | Sub Eng


Жанр: детектив, кримінальний, трилер
Країна: Велика Британія, США
Кінокомпанія: Muse Productions,Periscope Entertainment,Curiously Bright Entertainment
Режисер: Метью Каллен
Актори: Ембер Герд, Джим Стерджесс, Тео Джеймс, Біллі Боб Торнтон, Джеймі Александер, Кара Делевінь, Джейсон Айзекс, Лілі Коул

Сюжет:
Дія розвивається в 1999 році. Американський письменник Самсон Янг живе в Лондоні. За останні 20 років він не написав ні рядка, оскільки у нього триває творча криза. Вдобавок Самсон смертельно хворий. Друга героїня роману Еміса - фатальна красуня Нікола Сікс, яка знайомиться в барі з двома чоловіками. Обидва стануть її потенційними вбивцями. Один - дрібний шахрай, другий - безвольний аристократ. Янг спостерігає за трійцею, сподіваючись отримати матеріал для свого роману.


Тривалість: 01:47:54
Якість:

Відео:
кодек: H.265 (HEVC)
розмір кадру: 1920 x 804
бітрейт: 9266 кб/с
бітова глибина: 10 біт
Увага! Перед завантаженням переконайтесь, що ваш пристрій відтворення (та/або ПЗ) підтримує H.265 (HEVC)

Аудіо # 1:
мова: українська
переклад: професійний дубльований
кодек: AC-3 2.0
бітрейт: 192 кб/с

Аудіо # 2:
мова: англійська
переклад: оригінал
кодек: AC-3 5.1
бітрейт: 640 кб/с

Субтитри # 1:
мова: англійська (Full),
тип: програмні (м'які)
формат: *.srt

Субтитри # 2:
мова: англійська (SDH),
тип: програмні (м'які)
формат: *.srt


Info
Код:
General
Unique ID                                : 205781908478040870643435921956635060644 (0x9AD0276999FCED230CA8976D1AF2A9A4)
Complete name                            : F:\Video\London Fields (2018) 1080p H.265 [UKR_ENG] [Hurtom].
Format                                   :
Format version                           : Version 4 / Version 2
File size                                : 7.61 GiB
Duration                                 : 1 h 47 min
Overall bit rate                         : 10.1 Mb/s
Movie name                               : London Fields (2018)
Encoded date                             : UTC 2019-03-24 12:35:40
Writing application                      : v20.0.0 ('I Am The Sun') 64-bit
Writing library                          : libebml v1.3.5 + v1.4.8
Cover                                    : Yes
Attachments                              : Cover.jpg

Video
ID                                       : 1
Format                                   : HEVC
Format/Info                              : High Efficiency Video Coding
Format profile                           : Main [email protected]@High
Codec ID                                 : V_MPEGH/ISO/HEVC
Duration                                 : 1 h 47 min
Bit rate                                 : 9 266 kb/s
Width                                    : 1 920 pixels
Height                                   : 804 pixels
Display aspect ratio                     : 2.40:1
Frame rate mode                          : Constant
Frame rate                               : 23.976 (24000/1001) FPS
Color space                              : YUV
Chroma subsampling                       : 4:2:0
Bit depth                                : 10 bits
Bits/(Pixel*Frame)                       : 0.250
Stream size                              : 6.98 GiB (92%)
Title                                    : London Fields (2018)
Writing library                          : x265 3.0_Au+14-c7e5878bdd31:[Windows][GCC 9.0.1][64 bit] 10bit
Encoding settings                        : cpuid=1111039 / frame-threads=16 / numa-pools=8,8,8,8 / wpp / pmode / pme / no-psnr / no-ssim / log-level=2 / input-csp=1 / input-res=1920x804 / interlace=0 / total-frames=155233 / level-idc=41 / high-tier=1 / uhd-bd=0 / ref=5 / no-allow-non-conformance / no-repeat-headers / annexb / no-aud / no-hrd / info / hash=0 / no-temporal-layers / open-gop / min-keyint=23 / keyint=250 / gop-lookahead=0 / bframes=8 / b-adapt=2 / b-pyramid / bframe-bias=0 / rc-lookahead=60 / lookahead-slices=0 / scenecut=40 / radl=0 / no-splice / no-intra-refresh / ctu=16 / min-cu-size=16 / no-rect / no-amp / max-tu-size=16 / tu-inter-depth=3 / tu-intra-depth=3 / limit-tu=0 / rdoq-level=2 / dynamic-rd=0.00 / no-ssim-rd / signhide / no-tskip / nr-intra=0 / nr-inter=0 / no-constrained-intra / strong-intra-smoothing / max-merge=5 / limit-refs=0 / no-limit-modes / me=3 / subme=7 / merange=150 / temporal-mvp / weightp / weightb / no-analyze-src-pics / deblock=0:0 / sao / no-sao-non-deblock / rd=6 / no-early-skip / rskip / no-fast-intra / no-tskip-fast / no-cu-lossless / b-intra / no-splitrd-skip / rdpenalty=0 / psy-rd=2.00 / psy-rdoq=1.00 / no-rd-refine / no-lossless / cbqpoffs=0 / crqpoffs=0 / rc=crf / crf=16.0 / qcomp=0.60 / qpstep=4 / stats-write=0 / stats-read=0 / vbv-maxrate=50000 / vbv-bufsize=50000 / vbv-init=0.9 / crf-max=0.0 / crf-min=0.0 / ipratio=1.40 / pbratio=1.30 / aq-mode=2 / aq-strength=1.00 / cutree / zone-count=0 / no-strict-cbr / qg-size=16 / no-rc-grain / qpmax=69 / qpmin=0 / no-const-vbv / sar=1 / overscan=0 / videoformat=5 / range=0 / colorprim=1 / transfer=1 / colormatrix=1 / chromaloc=0 / display-window=0 / max-cll=0,0 / min-luma=0 / max-luma=1023 / log2-max-poc-lsb=8 / vui-timing-info / vui-hrd-info / slices=1 / no-opt-qp-pps / no-opt-ref-list-length-pps / no-multi-pass-opt-rps / scenecut-bias=0.05 / no-opt-cu-delta-qp / no-aq-motion / no-hdr / no-hdr-opt / no-dhdr10-opt / no-idr-recovery-sei / analysis-reuse-level=5 / scale-factor=0 / refine-intra=0 / refine-inter=0 / refine-mv=0 / refine-ctu-distortion=0 / no-limit-sao / ctu-info=0 / no-lowpass-dct / refine-analysis-type=0 / copy-pic=1 / max-ausize-factor=1.0 / no-dynamic-refine / no-single-sei / no-hevc-aq / no-svt / qp-adaptation-range=1.00
Default                                  : Yes
Forced                                   : No
Color range                              : Limited
Color primaries                          : BT.709
Transfer characteristics                 : BT.709
Matrix coefficients                      : BT.709

Audio #1
ID                                       : 2
Format                                   : AC-3
Format/Info                              : Audio Coding 3
Codec ID                                 : A_AC3
Duration                                 : 1 h 47 min
Bit rate mode                            : Constant
Bit rate                                 : 192 kb/s
Channel(s)                               : 2 channels
Channel positions                        : Front: L R
Sampling rate                            : 48.0 kHz
Frame rate                               : 31.250 FPS (1536 SPF)
Bit depth                                : 16 bits
Compression mode                         : Lossy
Stream size                              : 148 MiB (2%)
Title                                    : ПД - Line
Language                                 : Ukrainian
Service kind                             : Complete Main
Default                                  : Yes
Forced                                   : Yes

Audio #2
ID                                       : 3
Format                                   : AC-3
Format/Info                              : Audio Coding 3
Codec ID                                 : A_AC3
Duration                                 : 1 h 47 min
Bit rate mode                            : Constant
Bit rate                                 : 640 kb/s
Channel(s)                               : 6 channels
Channel positions                        : Front: L C R, Side: L R, LFE
Sampling rate                            : 48.0 kHz
Frame rate                               : 31.250 FPS (1536 SPF)
Bit depth                                : 16 bits
Compression mode                         : Lossy
Stream size                              : 494 MiB (6%)
Title                                    : Original
Language                                 : English
Service kind                             : Complete Main
Default                                  : No
Forced                                   : No

Text #1
ID                                       : 4
Format                                   : UTF-8
Codec ID                                 : S_TEXT/UTF8
Codec ID/Info                            : UTF-8 Plain Text
Duration                                 : 1 h 45 min
Bit rate                                 : 53 b/s
Count of elements                        : 1372
Stream size                              : 41.6 KiB (0%)
Title                                    : Full
Language                                 : English
Default                                  : No
Forced                                   : No

Text #2
ID                                       : 5
Format                                   : UTF-8
Codec ID                                 : S_TEXT/UTF8
Codec ID/Info                            : UTF-8 Plain Text
Duration                                 : 1 h 46 min
Bit rate                                 : 56 b/s
Count of elements                        : 1479
Stream size                              : 43.7 KiB (0%)
Title                                    : SDH
Language                                 : English
Default                                  : No
Forced                                   : No

Menu
00:00:00.000                             : en:Chapter 01
00:15:57.498                             : en:Chapter 02
00:28:36.006                             : en:Chapter 03
00:41:57.890                             : en:Chapter 04
00:53:24.326                             : en:Chapter 05
01:07:31.589                             : en:Chapter 06
01:20:45.632                             : en:Chapter 07
01:42:51.332                             : en:Chapter 08
Світлини





Джерело: &
Особиста оцінка: 0 - не дивився


 Трекер:    Зареєстрований   

Завантажити / скачати фільм українською



відео для новачків



 Зареєстрований:   2019-03-24 19:19
 Розмір:   7.61 GB 
 Оцінка фільму:   7.3/10 (Голосів: 4)
   
Інші релізи
   Лондонські поля / London Fields (2018) AVC Ukr/Eng | Sub Eng uafilm.tv  12 / 0   1.86 GB   2019-03-31 16:43 
   Лондонські поля / London Fields (2018) 720p Ukr/Eng | Sub Eng 11FrYkT  6 / 0   4.01 GB   2019-03-31 16:38 
   Лондонські поля / London Fields (2018) Ukr/Eng 11FrYkT  6 / 0   1.47 GB   2019-03-31 16:33 
   Лондонські поля / London Fields (2018) 1080p staf777  7 / 0   3.4 GB   2018-12-02 14:22 
0mage0 
VIP


З нами з: 06.10.15
Востаннє: 23.04.19
Повідомлень: 458

2019-04-08 19:09  
Жахлива нудятина, ледве додивився. Просто потік маячні.
FtilliDilli 
Новенький


З нами з: 15.05.12
Востаннє: 13.04.19
Повідомлень: 1

2019-04-13 21:24  
Шикарний фільм, з індивідуальним особливим характером. Після перегляду залишається відчуття, що переглянув шедевр.
Ваш часовий пояс: GMT + 2 Години

Нова тема   Відповісти