Берлінські пси (Сезон 1) / Dogs of Berlin (Season 1) (2018) AVC

Нові коментарі

Нова тема   Відповісти
Автор Повідомлення
Anonymous 







2019-03-24 17:40  
Берлінські пси (Сезон 1) / Dogs of Berlin (Season 1) (2018) AVC

Берлінські пси (Сезон 1) / Dogs of Berlin (Season 1) (2018) AVC


Жанр: екшн, кримінальний, драма
Країна: Німеччина



Кінокомпанія / телеканал: Syrreal Entertainment, Netflix
Режисер: Крістіан Альварт
Актори: Фелікс Крамер, Анна Марія Мюе, Урс Рехн, Катаріна Шюттлер, Фахрі Огюн Ярдім, Себастьян Ахілес, Антоніо Ваннек, Ханна Херцшпрунг, Сейнеб Салех та інші

Сюжет:
У центрі сюжету - двоє поліцейських, які змушені працювати разом, хоч є повною протилежністю один одного. В них різні методи роботи, різний темперамент і навіть національність: один - 100% німець зі Східного Берліна, другий - етнічний турок. Їх об'єднують з міркувань толерантності, адже розслідувати їм доведеться вбивство відомого футболіста, німецького громадянина з турецьким корінням. Роботи у хлопців чимало: наркоторгівля, підпільні азартні ігри, неонацисти-терористи (звичайно ж, в толерантній Європі терористами можуть бути лише нацисти, а не вихідці з Близького Сходу) та звичайні злодюжки…


Тривалість: 1 серія: ~ 60 хв. (цілком серій: 10)
Перелік серій
1. V.I.P.
2. Mannschaft
3. Begegnung
4. Heimspiel
5. Schiebung
6. Abseits
7. Derby
8. Länderspiel
9. Verlängerung
10. Siegerehrung
Якість: AVC
Відео:
кодек:
розмір кадру: 720 х 368
бітрейт: ~ 1 100 кб/с

Аудіо:
мова: українська
переклад: багатоголосий закадровий
кодек: 5.1
бітрейт: 384 кб/с

Джерело озвучення:
DniproFilm
MI
General
Unique ID : 335654432773145346247240500250588346908 (0xFC84B13ADCA56A49EDAE11C24371FA1C)
Complete name : Dogs of Berlin S01E01 AVC [UKR] [Hurtom].
Format :
Format version : Version 4
File size : 652 MiB
Duration : 1 h 1 min
Overall bit rate : 1 484 kb/s
Movie name : Берлінські пси (Сезон 1, серія 1) (2018)
Encoded date : UTC 2019-02-12 21:39:59
Writing application : v30.1.0 ('Forever And More') 64-bit
Writing library : libebml v1.3.6 + v1.4.9
Cover : Yes
Attachments : cover.jpg

Video
ID : 1
Format : AVC
Format/Info : Advanced Video Codec
Format profile : [email protected]
Format settings : CABAC / 5 Ref Frames
Format settings, CABAC : Yes
Format settings, ReFrames : 5 frames
Codec ID : V_MPEG4/ISO/AVC
Duration : 1 h 1 min
Bit rate : 1 100 kb/s
Width : 720 pixels
Height : 368 pixels
Display aspect ratio : 2.000
Frame rate mode : Constant
Frame rate : 25.000 FPS
Color space : YUV
Chroma subsampling : 4:2:0
Bit depth : 8 bits
Scan type : Progressive
Bits/(Pixel*Frame) : 0.166
Stream size : 483 MiB (74%)
Writing library : core 148 r2795M aaa9aa8
Encoding settings : cabac=1 / ref=5 / deblock=1:-1:-1 / analyse=0x3:0x113 / me=umh / subme=9 / psy=1 / psy_rd=1.00:0.15 / mixed_ref=1 / me_range=16 / chroma_me=1 / trellis=2 / 8x8dct=1 / cqm=0 / deadzone=21,11 / fast_pskip=1 / chroma_qp_offset=-3 / threads=24 / lookahead_threads=2 / sliced_threads=0 / nr=0 / decimate=1 / interlaced=0 / bluray_compat=0 / constrained_intra=0 / bframes=3 / b_pyramid=2 / b_adapt=2 / b_bias=0 / direct=3 / weightb=1 / open_gop=0 / weightp=2 / keyint=250 / keyint_min=25 / scenecut=40 / intra_refresh=0 / rc_lookahead=50 / rc=abr / mbtree=1 / bitrate=1100 / ratetol=1.0 / qcomp=0.60 / qpmin=0 / qpmax=69 / qpstep=4 / ip_ratio=1.40 / aq=1:1.00
Language : German
Default : Yes
Forced : No

Audio
ID : 2
Format : AC-3
Format/Info : Audio Coding 3
Commercial name : Dolby Digital
Codec ID : A_AC3
Duration : 1 h 1 min
Bit rate mode : Constant
Bit rate : 384 kb/s
Channel(s) : 6 channels
Channel layout : L R C LFE Ls Rs
Sampling rate : 48.0 kHz
Frame rate : 31.250 FPS (1536 SPF)
Bit depth : 16 bits
Compression mode : Lossy
Stream size : 169 MiB (26%)
Language : Ukrainian
Service kind : Complete Main
Default : Yes
Forced : Yes
Скріншоти
Джерело:


Авторський реліз (завантажувати можна без реєстрації)
 Трекер:    Зареєстрований   

Завантажити / скачати серіал українською



відео для новачків



 Зареєстрований:   2019-03-24 17:40
 Розмір:   5.67 GB 
 Оцінка серіалу:   8.5/10 (Голосів: 13)
   
SrGr 
Свій


З нами з: 15.01.12
Востаннє: 22.09.20
Повідомлень: 107

2019-03-30 19:11  
Рекомендую, однозначно. Хіба що, "неонацисти" якісь надто театральні. 10/10.
waldi-hurtom 
VIP


З нами з: 07.10.12
Востаннє: 26.09.20
Повідомлень: 1177

2020-01-07 20:34  
Не зміг додивитися навіть першу серію через свою алергію до дебілів та ідіотів. Схоже, творці цього шедевру бачать такими не лише усіх своїх акторів, але й глядачів. А ще не люблю чорно-сірий колір увесь час. 3 з 10.
Ваш часовий пояс: GMT + 2 Години

Нова тема   Відповісти