Ґрінч / The Grinch (2018) UHD Remux 2160p 4K HDR H.265 Ukr/Eng | Sub Eng

Нові коментарі

Нова тема   Відповісти
Автор Повідомлення
Argentum 
VIP


З нами з: 25.09.11
Востаннє: 05.03.21
Повідомлень: 285

2019-03-24 10:43  
Ґрінч / The Grinch (2018) UHD Remux 2160p 4K HDR H.265 Ukr/Eng | Sub Eng

Ґрінч / The Grinch (2018) UHD Remux 2160p 4K HDR H.265 Ukr/Eng | Sub Eng
Усі українські постери:











Жанр: анімація, комедія, сімейний, дитячий, казка
Країна: США



Кінокомпанія: Illumination Entertainment, Universal Studios
Режисер: Яроу Чейні, Скотт Мосьє
Актори: Бенедикт Камбербетч, Кемерон Сілі, Рашида Джонс, Кенан Томпсон, Фаррелл Вільямс Анджела Ленсбері, Скарлетт Естевес,

Сюжет:
Неподалік від Хтовська (Whoville) в прихованій від сторонніх очей печері зі своїм песиком Максом живе похмурий зелений Ґрінч. У Хтовську живуть щасливі люди, а Ґрінч майже завжди похмурий і сумний. Наближається Різдво. Хтовці (жителі Хтовська) із захватом готуються до свята - прикрашають будинки, готують подарунки один одному. Ґрінч ненавидить Різдво, його дратує коли всі радіють, навіть саме слово "Різдво" він не може вимовити, так йому гидко. І цього року Ґрінч вірішує позбавити Хтовськ Різдва назавжди.


Тривалість: 01:45:29
Якість: UHD Remux 2160p 4K

Відео:
кодек: H.265 (HEVC)
розмір кадру: 3840 х 2160
бітрейт: 60,5 Мб/с
бітова глибина: 10 біт
кольоровий простір: BT.2020 (HDR)

Увага! Перед завантаженням переконайтесь, що ваш пристрій відтворення (та/або ПЗ) підтримує H.265 (HEVC)

Аудіо # 1:
мова: українська
переклад: професійний дубльований
кодек: 2.0
бітрейт: 192 кб/с

Аудіо # 2:
мова: англійська
переклад: оригінал
кодек: TrueHD Atmos 7.1
бітрейт: 4289 кб/с

Субтитри:
мова: українська (форсовані)
тип: програмні (м'які)
формат: *.srt

Субтитри:
мова: англійська
тип: програмні (м'які)
формат: *.srt
Info
General
Unique ID : 160001282577951577391816952787021178702 (0x785F2049C6840F8EE01D46B72C05A74E)
Complete name : The Grinch (2018) [Ukr, Eng] Remux HDR 2160p [Hurtom].
Format :
Format version : Version 4
File size : 39.0 GiB
Duration : 1 h 25 min
Overall bit rate mode : Variable
Overall bit rate : 65.1 Mb/s
Movie name : The Grinch (2018) [Ukr, Eng] Remux HDR 2160p
Encoded date : UTC 2019-03-23 20:44:36
Writing application : v32.0.0 ('Astral Progressions') 64-bit
Writing library : libebml v1.3.7 + v1.5.0
Attachments : 1903232043575606_f0_0.jpg

Video
ID : 1
Format : HEVC
Format/Info : High Efficiency Video Coding
Format profile : Main [email protected]@High
HDR format : SMPTE ST 2086, HDR10 compatible
Codec ID : V_MPEGH/ISO/HEVC
Duration : 1 h 25 min
Bit rate : 60.5 Mb/s
Width : 3 840 pixels
Height : 2 160 pixels
Display aspect ratio : 16:9
Frame rate mode : Constant
Frame rate : 23.976 (24000/1001) FPS
Color space : YUV
Chroma subsampling : 4:2:0 (Type 2)
Bit depth : 10 bits
Bits/(Pixel*Frame) : 0.304
Stream size : 36.3 GiB (93%)
Title : HEVC 3840*2160 HDR10 @ 60.5 Mbps
Language : Multiple languages
Default : Yes
Forced : Yes
Color range : Limited
Color primaries : BT.2020
Transfer characteristics : PQ
Matrix coefficients : BT.2020 non-constant
Mastering display color pri : Display P3
Mastering display luminance : min: 0.0001 cd/m2, max: 1000 cd/m2
Maximum Content Light Level : 1000 cd/m2
Maximum Frame-Average Light : 407 cd/m2

Audio #1
ID : 2
Format : AC-3
Format/Info : Audio Coding 3
Commercial name : Dolby Digital
Codec ID : A_AC3
Duration : 1 h 25 min
Bit rate mode : Constant
Bit rate : 192 kb/s
Channel(s) : 2 channels
Channel layout : L R
Sampling rate : 48.0 kHz
Frame rate : 31.250 FPS (1536 SPF)
Bit depth : 16 bits
Compression mode : Lossy
Delay relative to video : -1 ms
Stream size : 118 MiB (0%)
Title : 2.0 @ 192 Kbps
Language : Ukrainian
Service kind : Complete Main
Default : Yes
Forced : Yes

Audio #2
ID : 3
Format : MLP FBA 16-ch
Format/Info : Meridian Lossless Packing FBA with 16-channel presentation
Commercial name : Dolby TrueHD with Dolby Atmos
Codec ID : A_TRUEHD
Duration : 1 h 25 min
Bit rate mode : Variable
Bit rate : 4 289 kb/s
Maximum bit rate : 6 513 kb/s
Channel(s) : 8 channels
Channel layout : L R C LFE Ls Rs Lb Rb
Sampling rate : 48.0 kHz
Frame rate : 1 200.000 FPS (40 SPF)
Compression mode : Lossless
Delay relative to video : -1 ms
Stream size : 2.57 GiB (7%)
Title : TrueHD Atmos 7.1 @ 4289 Kbps
Language : English
Default : No
Forced : No
Number of dynamic objects : 11
Bed channel count : 1 channel
Bed channel configuration : LFE

Text #1
ID : 4
Format : UTF-8
Codec ID : S_TEXT/UTF8
Codec ID/Info : UTF-8 Plain Text
Duration : 1 h 17 min
Bit rate : 1 b/s
Count of elements : 27
Stream size : 1.13 KiB (0%)
Title : Forced
Language : Ukrainian
Default : Yes
Forced : Yes

Text #2
ID : 5
Format : UTF-8
Codec ID : S_TEXT/UTF8
Codec ID/Info : UTF-8 Plain Text
Duration : 1 h 17 min
Bit rate : 52 b/s
Count of elements : 1024
Stream size : 30.0 KiB (0%)
Title : Full
Language : English
Default : No
Forced : No

Menu
00:00:00.000 : en:Chapter 01
00:05:40.298 : en:Chapter 02
00:10:35.927 : en:Chapter 03
00:14:14.103 : en:Chapter 04
00:17:45.106 : en:Chapter 05
00:22:19.296 : en:Chapter 06
00:26:28.337 : en:Chapter 07
00:30:45.093 : en:Chapter 08
00:34:46.584 : en:Chapter 09
00:38:37.190 : en:Chapter 10
00:44:40.595 : en:Chapter 11
00:47:27.678 : en:Chapter 12
00:52:37.488 : en:Chapter 13
00:56:33.181 : en:Chapter 14
01:01:04.995 : en:Chapter 15
01:05:34.639 : en:Chapter 16
01:07:23.456 : en:Chapter 17
01:12:14.914 : en:Chapter 18
01:14:12.782 : en:Chapter 19
01:18:08.309 : en:Chapter 20
Скріншоти









Джерело:

Подяка за аудіодоріжку та субтитри пану kryk-v.ya.

Особиста оцінка: 8 - мені сподобалося


Золотий реліз (завантажене не впливає на рейтинг)
 Трекер:    Зареєстрований   

Завантажити / скачати мультфільм українською



відео для новачків



 Зареєстрований:   2019-03-24 10:43
 Розмір:   39.01 GB 
 Оцінка мультфільму:   8.7/10 (Голосів: 15)
   
Інші релізи
   Ґрінч / The Grinch (2018) antik_2008  25 / 0   1.44 GB   2019-03-24 01:03 
   Ґрінч / The Grinch (2018) 1080p Ukr/Eng | Sub Eng antik_2008  31 / 0   6.68 GB   2019-03-23 21:03 
   Ґрінч / The Grinch (2018) 1080p H.265 Ukr/Eng | Sub Eng -Star-Lord-  24 / 0   2.83 GB   2019-03-23 00:06 
   Ґрінч / The Grinch (2018) AVC Ukr/Eng | Sub Eng 11FrYkT  68 / 0   1.67 GB   2019-03-22 17:22 
   Ґрінч / The Grinch (2018) 720p Ukr/Eng | Sub Eng 11FrYkT  27 / 0   3.78 GB   2019-03-22 14:57 
   Ґрінч / The Grinch (2018) Remux 1080p Ukr/Eng | Sub Eng kryk-v.ya.  5 / 0   22.01 GB   2019-03-22 13:50 
Ваш часовий пояс: GMT + 2 Години

Нова тема   Відповісти