Бамблбі / Bumblebee (2018) UHD Remux 4K 2160p HDR H.265 Ukr/Eng | Sub Ukr/Eng

Нові коментарі

Нова тема   Відповісти
Автор Повідомлення
antik_2008 
Релізер і модератор відео


З нами з: 20.10.08
Востаннє: 19.04.19
Повідомлень: 1949

2019-03-24 02:44  
Бамблбі / Bumblebee (2018) UHD Remux 4K 2160p HDR H.265 Ukr/Eng | Sub Ukr/Eng

Бамблбі / Bumblebee (2018) UHD Remux 4K 2160p HDR H.265 Ukr/Eng | Sub Ukr/Eng


Жанр: бойовик, пригоди, фантастика
Країна: США





Кінокомпанія: Paramount Pictures, Di Bonaventura Pictures, Hasbro Studios
Режисер: Тревіс Найт
Актори: Ділан О'Брайен, Гейлі Стайнфелд, Джастін Теру, Джон Сіна, Анджела Бассетт, Памела Адлон, Грей ДеЛісл, Пітер Каллен, Кеннет Чої

Сюжет:
У 1987 році на Землю потрапила одна істота, яка тут бути не повинна. Його звуть Бамблбі і він трансформер – робот із іншої планети, який може набувати форми земних машин. На батьківщині деякі його називають злочинцем, через що йому довелося бігти на Землю. Так Бамблбі потрапив до одного з каліфорнійських містечок біля узбережжя океану. Прихистила його вісімнадцятирічна дівчина Чарлі, яка, як і багато підлітків, намагається знайти своє місце в цьому світі. І разом дівчина та трансформер стануть справжньою родиною. На жаль, за Бамблбі буде йти хвіст, який хоче покарати злочинця. І тоді він зобов'язаний захищати Землю та людство від нових ворогів.


Тривалість: 01:53:53
Якість: 4K UltraHD Remux 2160p

Відео:
кодек: H.265 (HEVC)
розмір кадру: 3840x2160
бітрейт: 49,6 Мб/с
бітова глибина: 10 біт
кольоровий простір: BT.2020 (HDR)

Аудіо # 1:
мова: українська
переклад: професійний дубльований
кодек: 2.0 [стерео]
бітрейт: 192 кб/с

Аудіо # 2:
мова: англійська
переклад: оригінал
кодек: 5.1
бітрейт: 640 кб/с

Аудіо # 3:
мова: англійська
переклад: оригінал
кодек: TrueHD 7.1
бітрейт: 5376 кб/с

Субтитри (Full, Forced):
мова: українська
тип: програмні (м'які)
формат: *.srt

Субтитри (Full, SDH):
мова: англійська
тип: програмні (м'які)
формат: *.srt
Info
Код:
General
Complete name                            : Bumblebee (2018) [UKR_ENG] UHD Remux 4K 2160p HDR H.265 (HEVC) [ViDeO_Hurtom].
Format                                   :
Format version                           : Version 4
File size                                : 43.9 GiB
Duration                                 : 1 h 53 min
Overall bit rate mode                    : Variable
Overall bit rate                         : 55.2 Mb/s
Movie name                               : Bumblebee (2018) [UKR_ENG] UHD Remux 4K 2160p HDR H.265 (HEVC) [ViDeO_Hurtom]
Encoded date                             : UTC 2019-04-01 09:58:01
Writing application                      : v30.1.0 ('Forever And More') 64-bit
Writing library                          : libebml v1.3.6 + v1.4.9

Video
ID                                       : 1
Format                                   : HEVC
Format/Info                              : High Efficiency Video Coding
Commercial name                          : HDR10
Format profile                           : Main [email protected]@High
Codec ID                                 : V_MPEGH/ISO/HEVC
Duration                                 : 1 h 53 min
Bit rate                                 : 49.6 Mb/s
Width                                    : 3 840 pixels
Height                                   : 2 160 pixels
Display aspect ratio                     : 16:9
Frame rate mode                          : Constant
Frame rate                               : 23.976 (24000/1001) FPS
Color space                              : YUV
Chroma subsampling                       : 4:2:0 (Type 2)
Bit depth                                : 10 bits
Bits/(Pixel*Frame)                       : 0.249
Stream size                              : 39.4 GiB (90%)
Default                                  : Yes
Forced                                   : No
Color range                              : Limited
Color primaries                          : BT.2020
Transfer characteristics                 : PQ
Matrix coefficients                      : BT.2020 non-constant
Mastering display color primaries        : Display P3
Mastering display luminance              : min: 0.0001 cd/m2, max: 1000 cd/m2

Audio #1
ID                                       : 2
Format                                   : AC-3
Format/Info                              : Audio Coding 3
Commercial name                          : Dolby Digital
Codec ID                                 : A_AC3
Duration                                 : 1 h 53 min
Bit rate mode                            : Constant
Bit rate                                 : 192 kb/s
Channel(s)                               : 2 channels
Channel layout                           : L R
Sampling rate                            : 48.0 kHz
Frame rate                               : 31.250 FPS (1536 SPF)
Bit depth                                : 16 bits
Compression mode                         : Lossy
Stream size                              : 156 MiB (0%)
Title                                    : , 2 ch, 192 Кбт/с
Language                                 : Ukrainian
Service kind                             : Complete Main
Default                                  : Yes
Forced                                   : No

Audio #2
ID                                       : 3
Format                                   : AC-3
Format/Info                              : Audio Coding 3
Commercial name                          : Dolby Digital
Codec ID                                 : A_AC3
Duration                                 : 1 h 53 min
Bit rate mode                            : Constant
Bit rate                                 : 640 kb/s
Channel(s)                               : 6 channels
Channel layout                           : L R C LFE Ls Rs
Sampling rate                            : 48.0 kHz
Frame rate                               : 31.250 FPS (1536 SPF)
Bit depth                                : 16 bits
Compression mode                         : Lossy
Stream size                              : 521 MiB (1%)
Title                                    : , 6 ch, 640 Кбт/с
Language                                 : English
Service kind                             : Complete Main
Default                                  : No
Forced                                   : No

Audio #3
ID                                       : 4
Format                                   : MLP FBA 16-ch
Format/Info                              : Meridian Lossless Packing FBA with 16-channel presentation
Commercial name                          : Dolby TrueHD with Dolby Atmos
Codec ID                                 : A_TRUEHD
Duration                                 : 1 h 53 min
Bit rate mode                            : Variable
Bit rate                                 : 4 736 kb/s
Maximum bit rate                         : 7 761 kb/s
Channel(s)                               : 8 channels
Channel layout                           : L R C LFE Ls Rs Lb Rb
Sampling rate                            : 48.0 kHz
Frame rate                               : 1 200.000 FPS (40 SPF)
Compression mode                         : Lossless
Stream size                              : 3.77 GiB (9%)
Title                                    : TrueHD, 8 ch, 5376 Кбт/с
Language                                 : English
Default                                  : No
Forced                                   : No
Number of dynamic objects                : 11
Bed channel count                        : 1 channel
Bed channel configuration                : LFE

Text #1
ID                                       : 5
Format                                   : UTF-8
Codec ID                                 : S_TEXT/UTF8
Codec ID/Info                            : UTF-8 Plain Text
Duration                                 : 1 h 48 min
Bit rate                                 : 67 b/s
Count of elements                        : 1189
Stream size                              : 53.9 KiB (0%)
Title                                    : Full
Language                                 : Ukrainian
Default                                  : No
Forced                                   : No

Text #2
ID                                       : 6
Format                                   : UTF-8
Codec ID                                 : S_TEXT/UTF8
Codec ID/Info                            : UTF-8 Plain Text
Duration                                 : 1 h 45 min
Bit rate                                 : 1 b/s
Count of elements                        : 25
Stream size                              : 1.16 KiB (0%)
Title                                    : Forced
Language                                 : Ukrainian
Default                                  : Yes
Forced                                   : No

Text #3
ID                                       : 7
Format                                   : UTF-8
Codec ID                                 : S_TEXT/UTF8
Codec ID/Info                            : UTF-8 Plain Text
Duration                                 : 1 h 48 min
Bit rate                                 : 45 b/s
Count of elements                        : 1270
Stream size                              : 36.3 KiB (0%)
Title                                    : Full
Language                                 : English
Default                                  : No
Forced                                   : No

Text #4
ID                                       : 8
Format                                   : UTF-8
Codec ID                                 : S_TEXT/UTF8
Codec ID/Info                            : UTF-8 Plain Text
Duration                                 : 1 h 48 min
Bit rate                                 : 54 b/s
Count of elements                        : 1626
Stream size                              : 43.3 KiB (0%)
Title                                    : SDH
Language                                 : English
Default                                  : No
Forced                                   : No
Скріншоти


Джерело: &
Особиста оцінка: 9 - давно не бачив настільки якісне кіно

Увага! Перед завантаженням переконайтесь, що ваш пристрій відтворення (та/або ПЗ) підтримує H.265 (HEVC)

Підтримати купівлю інших фільмів можна тут.


Золотий реліз (завантажене не впливає на рейтинг)
 Трекер:    Зареєстрований   

Завантажити / скачати фільм українською



відео для новачків



 Зареєстрований:   2019-04-01 15:19
 Розмір:   43.91 GB 
 Оцінка фільму:   8.2/10 (Голосів: 15)
   
Інші релізи
   Бамблбі / Bumblebee (2018) Ukr/Eng antik_2008  47 / 1   2.15 GB   2019-04-01 16:39 
   Бамблбі / Bumblebee (2018) 1080p Ukr/Eng | Sub Ukr/Eng antik_2008  29 / 0   15.49 GB   2019-04-01 15:44 
   Бамблбі / Bumblebee (2018) Remux 1080p Ukr/Eng | Sub Ukr/Eng antik_2008  10 / 1   28.98 GB   2019-04-01 15:29 
   Бамблбі / Bumblebee (2018) 720p Ukr/Eng | Sub Ukr/Eng 11FrYkT  55 / 0   7.54 GB   2019-03-30 16:20 
   Бамблбі / Bumblebee (2018) AVC Ukr | Sub Ukr/Eng 11FrYkT  33 / 0   2.36 GB   2019-03-30 16:13 
   Бамблбі / Bumblebee (2018) Ukr/Eng | Sub Ukr/Eng uafilm.tv  19 / 0   1.47 GB   2019-03-30 02:24 
sandman 
VIP


З нами з: 12.08.12
Востаннє: 19.04.19
Повідомлень: 257

2019-03-24 11:37  
antik_2008 ремукс 1080 від вас буде?
antik_2008 
Релізер і модератор відео


З нами з: 20.10.08
Востаннє: 19.04.19
Повідомлень: 1949

2019-03-24 16:46  
sandman
пізніше

sandman 
VIP


З нами з: 12.08.12
Востаннє: 19.04.19
Повідомлень: 257

2019-03-24 17:01  
antik_2008 добре, дякую
antik_2008 
Релізер і модератор відео


З нами з: 20.10.08
Востаннє: 19.04.19
Повідомлень: 1949

2019-04-01 15:21  
Реліз оновлено. Додав субтитри і кращий звук.
antik_2008 
Релізер і модератор відео


З нами з: 20.10.08
Востаннє: 19.04.19
Повідомлень: 1949

2019-04-05 11:05  
Цікава частина 9/10
Ваш часовий пояс: GMT + 2 Години

Нова тема   Відповісти