Ґрінч / The Grinch (2018) 1080p Ukr/Eng | Sub Eng

Нові коментарі

Нова тема   Відповісти
Автор Повідомлення
Anonymous 







2019-03-23 21:03  
Ґрінч / The Grinch (2018) 1080p Ukr/Eng | Sub Eng

Ґрінч / The Grinch (2018) 1080p Ukr/Eng | Sub Eng
Усі українські постери:











Жанр: анімація, комедія, сімейний, фентезі
Країна: США, Франція, Японія, Китай





Кінокомпанія: Universal Pictures, Illumination Entertainment
Режисер: Яроу Чейні / Yarrow Cheney, Скотт Мосьє / Scott Mosier
Ролі озвучують: Бенедикт Камбербетч / Benedict Cumberbatch, Камерон Шіллі / Cameron Seely, Рашіда Джонс / Rashida Jones

Сюжет:
Неподалік від Хтовська (Whoville) в прихованій від сторонніх очей печері зі своїм песиком Максом живе похмурий зелений Ґрінч. У Хтовську живуть щасливі люди, а Ґрінч майже завжди похмурий і сумний. Наближається Різдво. Хтовці (жителі Хтовська) із захватом готуються до свята - прикрашають будинки, готують подарунки один одному. Ґрінч ненавидить Різдво, його дратує коли всі радіють, навіть саме слово "Різдво" він не може вимовити, так йому гидко. І цього року Ґрінч вірішує позбавити Хтовськ Різдва назавжди.


Тривалість: 01:25:49
Якість: 1080p

Відео:
кодек:
розмір кадру: 1920x804
бітрейт: 10,5 Мб/с

Аудіо # 1:
мова: українська
переклад: професійний дубльований
кодек: 2.0
бітрейт: 192 кб/с

Аудіо # 2:
мова: англійська
переклад: оригінал
кодек: 5.1
бітрейт: 448 кб/с

Субтитри (Forced):
мова: українська
тип: програмні (м'які)
формат: *.srt

Субтитри (Full, SDH):
мова: англійська
тип: програмні (м'які)
формат: *.srt
Info
Код:
General
Complete name                            : The Grinch (2018) 1080p [UKR.ENG] [Video_Hurtom].
Format                                   :
Format version                           : Version 4
File size                                : 6.68 GiB
Duration                                 : 1 h 25 min
Overall bit rate                         : 11.1 Mb/s
Movie name                               : The Grinch (2018) 1080p [UKR.ENG] [Video_Hurtom]
Encoded date                             : UTC 2019-03-23 18:48:52
Writing application                      : v30.1.0 ('Forever And More') 64-bit
Writing library                          : libebml v1.3.6 + v1.4.9

Video
ID                                       : 1
Format                                   : AVC
Format/Info                              : Advanced Video Codec
Format profile                           : [email protected]
Format settings                          : CABAC / 5 Ref Frames
Format settings, CABAC                   : Yes
Format settings, RefFrames               : 5 frames
Codec ID                                 : V_MPEG4/ISO/AVC
Duration                                 : 1 h 25 min
Bit rate                                 : 10.5 Mb/s
Width                                    : 1 920 pixels
Height                                   : 804 pixels
Display aspect ratio                     : 2.40:1
Frame rate mode                          : Constant
Frame rate                               : 23.976 (24000/1001) FPS
Color space                              : YUV
Chroma subsampling                       : 4:2:0
Bit depth                                : 8 bits
Scan type                                : Progressive
Bits/(Pixel*Frame)                       : 0.284
Stream size                              : 6.29 GiB (94%)
Title                                    : seleZen
Writing library                          : core 148 r2705kMod 3f5ed56
Encoding settings                        : cabac=1 / ref=5 / deblock=1:-2:-2 / analyse=0x3:0x133 / me=umh / subme=11 / psy=1 / fade_compensate=0.00 / psy_rd=1.20:0.05 / mixed_ref=1 / me_range=48 / chroma_me=1 / trellis=2 / 8x8dct=1 / cqm=0 / deadzone=21,11 / fast_pskip=0 / chroma_qp_offset=-3 / threads=12 / lookahead_threads=2 / sliced_threads=0 / nr=0 / decimate=0 / interlaced=0 / bluray_compat=0 / constrained_intra=0 / fgo=0 / bframes=8 / b_pyramid=2 / b_adapt=2 / b_bias=0 / direct=3 / weightb=1 / open_gop=0 / weightp=2 / keyint=240 / keyint_min=23 / scenecut=40 / intra_refresh=0 / rc_lookahead=50 / rc=2pass / mbtree=0 / bitrate=10500 / ratetol=1.0 / qcomp=0.60 / qpmin=0 / qpmax=51 / qpstep=4 / cplxblur=20.0 / qblur=0.5 / vbv_maxrate=50000 / vbv_bufsize=62500 / nal_hrd=none / filler=0 / ip_ratio=1.40 / pb_ratio=1.30 / aq=3:0.80
Language                                 : English
Default                                  : Yes
Forced                                   : No

Audio #1
ID                                       : 2
Format                                   : AC-3
Format/Info                              : Audio Coding 3
Commercial name                          : Dolby Digital
Codec ID                                 : A_AC3
Duration                                 : 1 h 25 min
Bit rate mode                            : Constant
Bit rate                                 : 192 kb/s
Channel(s)                               : 2 channels
Channel layout                           : L R
Sampling rate                            : 48.0 kHz
Frame rate                               : 31.250 FPS (1536 SPF)
Bit depth                                : 16 bits
Compression mode                         : Lossy
Stream size                              : 118 MiB (2%)
Title                                    : , 2.0, 192 Kbp
Language                                 : Ukrainian
Service kind                             : Complete Main
Default                                  : Yes
Forced                                   : No

Audio #2
ID                                       : 3
Format                                   : AC-3
Format/Info                              : Audio Coding 3
Commercial name                          : Dolby Digital
Codec ID                                 : A_AC3
Duration                                 : 1 h 25 min
Bit rate mode                            : Constant
Bit rate                                 : 448 kb/s
Channel(s)                               : 6 channels
Channel layout                           : L R C LFE Ls Rs
Sampling rate                            : 48.0 kHz
Frame rate                               : 31.250 FPS (1536 SPF)
Bit depth                                : 16 bits
Compression mode                         : Lossy
Stream size                              : 275 MiB (4%)
Title                                    : , 5.1, 448 Kbps
Language                                 : English
Service kind                             : Complete Main
Default                                  : No
Forced                                   : No

Text #1
ID                                       : 4
Format                                   : UTF-8
Codec ID                                 : S_TEXT/UTF8
Codec ID/Info                            : UTF-8 Plain Text
Duration                                 : 1 h 17 min
Bit rate                                 : 1 b/s
Count of elements                        : 27
Stream size                              : 1.13 KiB (0%)
Title                                    : Forced
Language                                 : Ukrainian
Default                                  : Yes
Forced                                   : No

Text #2
ID                                       : 5
Format                                   : UTF-8
Codec ID                                 : S_TEXT/UTF8
Codec ID/Info                            : UTF-8 Plain Text
Duration                                 : 1 h 17 min
Bit rate                                 : 52 b/s
Count of elements                        : 1024
Stream size                              : 30.0 KiB (0%)
Title                                    : Full
Language                                 : English
Default                                  : No
Forced                                   : No

Text #3
ID                                       : 6
Format                                   : UTF-8
Codec ID                                 : S_TEXT/UTF8
Codec ID/Info                            : UTF-8 Plain Text
Duration                                 : 1 h 20 min
Bit rate                                 : 60 b/s
Count of elements                        : 1304
Stream size                              : 35.7 KiB (0%)
Title                                    : SDH
Language                                 : English
Default                                  : No
Forced                                   : No
Скріншоти








Подяка за аудіо і субтитри kryk-v.ya.

Джерело: &
Особиста оцінка: 10 - без зайвих вагань рекомендую всім!


 Трекер:    Зареєстрований   

Завантажити / скачати мультфільм українською



відео для новачків



 Зареєстрований:   2019-03-23 21:03
 Розмір:   6.68 GB 
 Оцінка мультфільму:   9.8/10 (Голосів: 37)
   
Інші релізи
   Ґрінч / The Grinch (2018) UHD Remux 2160p 4K HDR H.265 Ukr/Eng | Sub Eng Argentum  4 / 0   39.01 GB   2019-03-24 10:43 
   Ґрінч / The Grinch (2018) antik_2008  41 / 0   1.44 GB   2019-03-24 01:03 
   Ґрінч / The Grinch (2018) 1080p H.265 Ukr/Eng | Sub Eng -Star-Lord-  26 / 0   2.83 GB   2019-03-23 00:06 
   Ґрінч / The Grinch (2018) AVC Ukr/Eng | Sub Eng 11FrYkT  74 / 1   1.67 GB   2019-03-22 17:22 
   Ґрінч / The Grinch (2018) 720p Ukr/Eng | Sub Eng 11FrYkT  34 / 0   3.78 GB   2019-03-22 14:57 
   Ґрінч / The Grinch (2018) Remux 1080p Ukr/Eng | Sub Eng kryk-v.ya.  9 / 0   22.01 GB   2019-03-22 13:50 
KeryaS 
VIP


З нами з: 01.09.14
Востаннє: 23.02.20
Повідомлень: 255

2019-03-24 22:19  
Непоганий мультфільм. Забагато співів) але дивитися цікаво, хоч і передбачувано.
martwell 
Новенький


З нами з: 19.09.15
Востаннє: 06.12.19
Повідомлень: 3

2019-04-14 19:47  
Мульт шикарний
Lika1111 
Новенький


З нами з: 20.12.19
Востаннє: 22.02.20
Повідомлень: 16

2019-12-21 19:59  
Дуже приємний фільм виявися. Дякую! Навіть шкода, що не потрапила в кіно в минулому році на нього.
Ваш часовий пояс: GMT + 2 Години

Нова тема   Відповісти