Формула 1: Ганяти, щоб виживати (Сезон 1) / Formula 1: Drive to Survive (Season 1) (2019) 720p Ukr/Eng

Нові коментарі

Нова тема   Відповісти
Автор Повідомлення
dragheart 
Частий відвідувач


З нами з: 27.01.16
Востаннє: 23.04.19
Повідомлень: 37

2019-03-23 14:09  
Формула 1: Ганяти, щоб виживати (Сезон 1) / Formula 1: Drive to Survive (Season 1) (2019) 720p Ukr/Eng

Формула 1: Ганяти, щоб виживати (Сезон 1) / Formula 1: Drive to Survive (Season 1) (2019) 720p Ukr/Eng


Жанр: документальний, спорт
Країна: Велика Британія



Телеканал / кіностудія: Netflix
Режисер: Роберт Форд, Джеймс Грей-Риз, Пол Мартін
Актори: Льюїс Гемільтон , Фернандо Алонсо, Даніель Ріккардо та інші

Сюжет:
Formula 1: Drive to Survive - це співпраця між Netflix та Formula One, щоб дати ексклюзивний закулісний погляд на Чемпіонат світу Формули-1 2018 року.Серіал дає вболівальникам можливість не тільки простежити за боротьбою за титул з першої до останньої гонки сезону, а й познайомитися з особистим життям їхніх кумирів, побачити, що відбувається всередині команд, тих людей, завдяки яким усі знають Формулу 1 такою, якою вона є.


Тривалість: приблизно 00:35:00 (цілком серій 10)
Перелік серій
01. All to Play For
02. The King of Spain
03. Redemption
04. The Art of War
05. Trouble at the Top
06. All or Nothing
07. Keeping Your Head
08. The Next Generation
09. Stars and Stripes
10. Crossing the Line
Якість:
Відео:
кодек:
розмір кадру: 1 280 х 720
бітрейт: 3 650 кб/с

Аудіо # 1:
мова: українська
переклад: одноголосий закадровий | <<Olegolas>>
кодек: 2.0
бітрейт: 224 кб/с

Аудіо # 2:
мова: англійська
переклад: оригінал
кодек: 5.1
бітрейт: 448 кб/с

Слідкуйте за оновленнями на сторінці FaceBook: Olegolas

Info
General
Unique ID : 49657497183844513945674227865724226958 (0x255BAFA2DF0EC073BB9042D4DCED8D8E)
Complete name : F:\Проект\Готовые проекты\Formula.1.Drive.to.Survive S01\Formula.1.Drive.to.Survive.S01E01.720p..Ukr.
Format :
Format version : Version 4 / Version 2
File size : 1.07 GiB
Duration : 36mn 14s
Overall bit rate mode : Variable
Overall bit rate : 4 235 Kbps
Encoded date : UTC 2019-03-12 21:02:00
Writing application : v23.0.0 ('The Bride Said No') 64-bit
Writing library : libebml v1.3.6 + v1.4.9
DURATION : 00:36:14.272000000
NUMBER_OF_FRAMES : 67946
NUMBER_OF_BYTES : 60879616
_STATISTICS_WRITING_APP : v23.0.0 ('The Bride Said No') 64-bit
_STATISTICS_WRITING_DATE_UTC : 2019-03-12 21:02:00
_STATISTICS_TAGS : BPS DURATION NUMBER_OF_FRAMES NUMBER_OF_BYTES

Video
ID : 1
Format : AVC
Format/Info : Advanced Video Codec
Format profile : [email protected]
Format settings, CABAC : Yes
Format settings, ReFrames : 3 frames
Codec ID : V_MPEG4/ISO/AVC
Duration : 36mn 14s
Bit rate mode : Variable
Bit rate : 3 650 Kbps
Maximum bit rate : 5 475 Kbps
Width : 1 280 pixels
Height : 720 pixels
Display aspect ratio : 16:9
Frame rate : 25.000 fps
Color space : YUV
Chroma subsampling : 4:2:0
Bit depth : 8 bits
Scan type : Progressive
Bits/(Pixel*Frame) : 0.158
Stream size : 902 MiB (82%)
Writing library : core 148 r2715 7e75228
Encoding settings : cabac=1 / ref=3 / deblock=1:0:0 / analyse=0x1:0x111 / me=umh / subme=10 / psy=1 / psy_rd=1.00:0.00 / mixed_ref=1 / me_range=24 / chroma_me=1 / trellis=2 / 8x8dct=0 / cqm=0 / deadzone=21,11 / fast_pskip=1 / chroma_qp_offset=-2 / threads=8 / lookahead_threads=1 / sliced_threads=0 / nr=0 / decimate=1 / interlaced=0 / bluray_compat=0 / stitchable=1 / constrained_intra=0 / bframes=2 / b_pyramid=0 / b_adapt=2 / b_bias=0 / direct=3 / weightb=1 / open_gop=0 / weightp=2 / keyint=50 / keyint_min=26 / scenecut=0 / intra_refresh=0 / rc_lookahead=50 / rc=2pass / mbtree=1 / bitrate=3650 / ratetol=1.0 / qcomp=0.50 / qpmin=6 / qpmax=51 / qpstep=4 / cplxblur=20.0 / qblur=0.5 / vbv_maxrate=5475 / vbv_bufsize=7300 / nal_hrd=vbr / filler=0 / ip_ratio=1.40 / aq=1:1.00
Language : English
Default : Yes
Forced : No
DURATION : 00:36:14.176000000
NUMBER_OF_FRAMES : 67943
NUMBER_OF_BYTES : 121753856
_STATISTICS_WRITING_APP : v23.0.0 ('The Bride Said No') 64-bit
_STATISTICS_WRITING_DATE_UTC : 2019-03-12 21:02:00
_STATISTICS_TAGS : BPS DURATION NUMBER_OF_FRAMES NUMBER_OF_BYTES

Audio #1
ID : 2
Format : AC-3
Format/Info : Audio Coding 3
Mode extension : CM (complete main)
Codec ID : A_AC3
Duration : 36mn 14s
Bit rate mode : Constant
Bit rate : 224 Kbps
Channel(s) : 2 channels
Channel positions : Front: L R
Sampling rate : 48.0 KHz
Bit depth : 16 bits
Compression mode : Lossy
Stream size : 58.1 MiB (5%)
Language : Ukrainian
Default : Yes
Forced : No

Audio #2
ID : 3
Format : E-AC-3
Format/Info : Audio Coding 3
Codec ID : A_EAC3
Duration : 36mn 14s
Bit rate mode : Constant
Bit rate : 448 Kbps
Channel(s) : 6 channels
Channel positions : Front: L C R, Side: L R, LFE
Sampling rate : 48.0 KHz
Compression mode : Lossy
Stream size : 116 MiB (11%)
Language : English
Default : No
Forced : No
Скріншоти




Особиста оцінка: 10 - без зайвих вагань рекомендую всім!


Авторський реліз (завантажувати можна без реєстрації)
 Трекер:    Зареєстрований   

Завантажити / скачати торрент



відео для новачків



 Зареєстрований:   2019-03-23 14:09
 Розмір:   11.96 GB 
 Оцінка:   9.5/10 (Голосів: 23)
   
havryk 
VIP


З нами з: 29.06.10
Востаннє: 23.04.19
Повідомлень: 800

2019-03-23 20:17  
dragheart написано:

Режисер: Robert Ford, James Gay-Rees, Paul Martin
Актори: Lewis Hamilton, Fernando Alonso, Daniel Ricciardo та інші

Це має бути українською.
dragheart написано:
2018 года.

року
Також додайте посилання на IMDb та перелік серій.

dragheart 
Частий відвідувач


З нами з: 27.01.16
Востаннє: 23.04.19
Повідомлень: 37

2019-03-23 20:40  
havryk
Дякую. Виправив

VicCob 
Частий відвідувач


З нами з: 16.06.10
Востаннє: 15.04.19
Повідомлень: 45

2019-03-30 17:16  
Дякую!
bravegoblin 
Новенький


З нами з: 07.11.17
Востаннє: 21.04.19
Повідомлень: 1

2019-03-31 08:52  
Щиро вдячний!
dragheart 
Частий відвідувач


З нами з: 27.01.16
Востаннє: 23.04.19
Повідомлень: 37

2019-04-05 10:35  
Нема за що. Радий що вам сподобалось!
robben16 
Новенький


З нами з: 18.11.10
Востаннє: 21.04.19
Повідомлень: 17

2019-04-10 11:38  
крутй серіал. любителям гонок ф1 дивитися однозначно!
Ваш часовий пояс: GMT + 2 Години

Нова тема   Відповісти