Френкі та Джоні / Frankie and Johnny (1991) 1080p Ukr/Eng | Sub Eng

Нові коментарі

Нова тема   Відповісти
Автор Повідомлення
Anonymous 







2019-03-23 13:40  
Френкі та Джоні / Frankie and Johnny (1991) 1080p Ukr/Eng | Sub Eng

Френкі та Джоні / Frankie and Johnny (1991) 1080p Ukr/Eng | Sub Eng


Жанр: мелодрама, комедія
Країна: США



Кінокомпанія: Paramount Pictures
Режисер: Гаррі Маршалл
Актори: Аль Пачіно, Мішель Пфайффер, Гектор Елізондо, Натан Лейн, Кейт Нелліган, Джейн Морріс, Грег Льюїс, Ел Фенн, Елі Кітс, Фернандо Лопез

Сюжет:
Джоні — хороший хлопець, який одного дня оступився і попав за грати. Коли Джоні вийшов на свободу, він вирішив почати нове життя і...зустрів Френкі. Френкі — мила, але самотня молода жінка, якій дуже не щастить в коханні. Вона вже зневірилася знайти свого «прекрасного принца» і... зустріла Джоні.


Тривалість: 01:57:48
Якість: 1080p
Відео:
кодек:
розмір кадру: 1920x1080
бітрейт: 12500 кб/с

Аудіо # 1:
мова: українська
переклад: двоголосий закадровий
кодек: 2.0
бітрейт: 192 кб/с

Аудіо # 2:
мова: англійська
переклад: оригінал
кодек: 5.1
бітрейт: 640 кб/с

Субтитри:
мова: англійська
тип: програмні (м'які)
формат: *.srt
Info
General
Unique ID : 219813273590092791746356036237498035983 (0xA55E7F1FBDF33759BB3754FFCD04AF0F)
Complete name : H:\Toloka\2019\Frankie and Johnny (1991) 1080p.
Format :
Format version : Version 4
File size : 11.2 GiB
Duration : 1 h 57 min
Overall bit rate mode : Variable
Overall bit rate : 13.7 Mb/s
Encoded date : UTC 2019-03-23 10:33:00
Writing application : v6.1.0 ('Old Devil') built on Mar 4 2013 09:10:42
Writing library : libebml v1.3.0 + v1.4.0

Video
ID : 1
Format : AVC
Format/Info : Advanced Video Codec
Format profile : [email protected]
Format settings : CABAC / 4 Ref Frames
Format settings, CABAC : Yes
Format settings, RefFrames : 4 frames
Codec ID : V_MPEG4/ISO/AVC
Duration : 1 h 57 min
Bit rate mode : Variable
Bit rate : 12.6 Mb/s
Maximum bit rate : 15.0 Mb/s
Width : 1 920 pixels
Height : 1 080 pixels
Display aspect ratio : 16:9
Frame rate mode : Constant
Frame rate : 23.976 (24000/1001) FPS
Color space : YUV
Chroma subsampling : 4:2:0
Bit depth : 8 bits
Scan type : Progressive
Bits/(Pixel*Frame) : 0.253
Stream size : 10.3 GiB (92%)
Writing library : core 148 r2623 d5b2374
Encoding settings : cabac=1 / ref=4 / deblock=1:-1:-1 / analyse=0x3:0x133 / me=umh / subme=9 / psy=1 / psy_rd=1.00:0.15 / mixed_ref=1 / me_range=24 / chroma_me=1 / trellis=2 / 8x8dct=1 / cqm=0 / deadzone=21,11 / fast_pskip=1 / chroma_qp_offset=-3 / threads=34 / lookahead_threads=5 / sliced_threads=0 / nr=150 / decimate=1 / interlaced=0 / bluray_compat=0 / constrained_intra=0 / bframes=8 / b_pyramid=2 / b_adapt=2 / b_bias=0 / direct=3 / weightb=1 / open_gop=0 / weightp=2 / keyint=120 / keyint_min=61 / scenecut=0 / intra_refresh=0 / rc_lookahead=120 / rc=crf / mbtree=1 / crf=18.0 / qcomp=0.60 / qpmin=0 / qpmax=69 / qpstep=4 / vbv_maxrate=15000 / vbv_bufsize=31250 / crf_max=0.0 / nal_hrd=vbr / filler=0 / ip_ratio=1.40 / aq=3:1.00
Language : English
Default : No
Forced : No
Color range : Limited
Color primaries : BT.709
Transfer characteristics : BT.709
Matrix coefficients : BT.709

Audio #1
ID : 2
Format : AC-3
Format/Info : Audio Coding 3
Commercial name : Dolby Digital
Codec ID : A_AC3
Duration : 1 h 57 min
Bit rate mode : Constant
Bit rate : 192 kb/s
Channel(s) : 2 channels
Channel layout : L R
Sampling rate : 48.0 kHz
Frame rate : 31.250 FPS (1536 SPF)
Bit depth : 16 bits
Compression mode : Lossy
Stream size : 162 MiB (1%)
Title : UKR (Новий)
Language : Ukrainian
Service kind : Complete Main
Default : Yes
Forced : Yes

Audio #2
ID : 3
Format : AC-3
Format/Info : Audio Coding 3
Commercial name : Dolby Digital
Codec ID : A_AC3
Duration : 1 h 57 min
Bit rate mode : Constant
Bit rate : 640 kb/s
Channel(s) : 6 channels
Channel layout : L R C LFE Ls Rs
Sampling rate : 48.0 kHz
Frame rate : 31.250 FPS (1536 SPF)
Bit depth : 16 bits
Compression mode : Lossy
Stream size : 539 MiB (5%)
Language : English
Service kind : Complete Main
Default : No
Forced : No

Text
ID : 4
Format : UTF-8
Codec ID : S_TEXT/UTF8
Codec ID/Info : UTF-8 Plain Text
Language : English
Default : No
Forced : No

Menu
00:00:00.000 : en:Altoona
00:07:33.000 : en:A Second Chance
00:12:14.000 : en:Dinner And a Movie
00:17:56.000 : en:The New Guy
00:22:42.000 : en:Living Alone
00:29:02.000 : en:Empathy
00:38:28.000 : en:Pursuing Frankie
00:44:09.000 : en:A Gentleman Caller
00:51:09.000 : en:Peter's Going Away Party
00:57:01.000 : en:Flower Mart
01:04:24.000 : en:Getting Together
01:13:29.000 : en:Bowling Alley
01:21:40.000 : en:Changing Shifts
01:30:44.000 : en:Love Blossoms
01:37:17.000 : en:Making The Conncetion
01:41:27.000 : en:Frankie Reveals Her Past
01:47:33.000 : en:Clair de Lune
Скріншоти







За українську доріжку подяка п.: Romario_O, imonko
Особиста подяка пану denixx за надану матеріальну допомогу на підтримку цього і майбутніх релізів.
Джерело:


Срібний реліз (на рейтинг впливає 50% завантаженого)
 Трекер:    Зареєстрований   

Завантажити / скачати фільм українською



відео для новачків



 Зареєстрований:   2019-03-23 13:40
 Розмір:   11.24 GB 
 Оцінка фільму:   9.5/10 (Голосів: 2)
   
Інші релізи
   Френкі та Джоні / Frankie and Johnny (1991) Ukr/Eng imonko  3 / 0   1.82 GB   2011-02-18 22:03 
Ваш часовий пояс: GMT + 2 Години

Нова тема   Відповісти