Таємне місто (Сезон 2) / Secret City (Season 2) (2019) 720p Eng | Sub Ukr/Eng

Нові коментарі

Нова тема   Відповісти
Автор Повідомлення
Anonymous 







2019-03-23 02:10  
Таємне місто (Сезон 2) / Secret City (Season 2) (2019) 720p Eng | Sub Ukr/Eng



Жанр: трилер, детектив
Країна: Австралія



Кінокомпанія: Foxtel Productions, Matchbox Pictures
Режисер: Емма Фрімен, Тоні Кравіц
Актори: Анна Торв, Джекі Вівер, Маркус Ґрем

Сюжет:
Політичний кореспондент Гаррієт Данклі врезультаті журналістського розслідування виявляє деяке таємне містечко, повне політичних змов, що наражають невинних людей на небезпеку.
перелік серій
1.Run Little Rabbit
2.The War Zone
3.Pale Horse
4.Broken Bird
5.For Whom the Bell Tolls
6.Two Cheers for Democracy
Тривалість: 1 серія: ~00:42:00 (цілком серій: 6)
Якість:
Відео:
кодек:
розмір кадру: 1280 х 720
бітрейт: 2000- 3000 кб/с

Аудіо:
мова: англійська
переклад: оригінал
кодек: E-AC-3 5.1
бітрейт: 448 кб/с

Субтитри:
мова: українська
тип: програмні (м'які)
формат: *.srt

Субтитри:
мова: англійська
тип: програмні (м'які)
формат: *.srt
Скріншоти





МІ
Format :
Format version : Version 4
File size : 918 MiB
Duration : 51 min 50 s
Overall bit rate mode : Variable
Overall bit rate : 2 475 kb/s
Encoded date : UTC 2019-03-22 23:29:04
Writing application : v27.0.0 ('Metropolis') 64-bit
Writing library : libebml v1.3.6 + v1.4.9

Video
ID : 1
Format : AVC
Format/Info : Advanced Video Codec
Format profile : [email protected]
Format settings : CABAC / 3 Ref Frames
Format settings, CABAC : Yes
Format settings, ReFrames : 3 frames
Codec ID : V_MPEG4/ISO/AVC
Duration : 51 min 50 s
Bit rate mode : Variable
Bit rate : 2 050 kb/s
Maximum bit rate : 3 075 kb/s
Width : 1 280 pixels
Height : 720 pixels
Display aspect ratio : 16:9
Frame rate mode : Constant
Frame rate : 25.000 FPS
Color space : YUV
Chroma subsampling : 4:2:0
Bit depth : 8 bits
Scan type : Progressive
Bits/(Pixel*Frame) : 0.089
Stream size : 751 MiB (82%)
Writing library : core 148 r2715 7e75228
Encoding settings : cabac=1 / ref=3 / deblock=1:0:0 / analyse=0x1:0x111 / me=umh / subme=10 / psy=1 / psy_rd=1.00:0.00 / mixed_ref=1 / me_range=24 / chroma_me=1 / trellis=2 / 8x8dct=0 / cqm=0 / deadzone=21,11 / fast_pskip=1 / chroma_qp_offset=-2 / threads=8 / lookahead_threads=1 / sliced_threads=0 / nr=0 / decimate=1 / interlaced=0 / bluray_compat=0 / stitchable=1 / constrained_intra=0 / bframes=2 / b_pyramid=0 / b_adapt=2 / b_bias=0 / direct=3 / weightb=1 / open_gop=0 / weightp=2 / keyint=50 / keyint_min=26 / scenecut=0 / intra_refresh=0 / rc_lookahead=50 / rc=2pass / mbtree=1 / bitrate=2050 / ratetol=1.0 / qcomp=0.50 / qpmin=6 / qpmax=51 / qpstep=4 / cplxblur=20.0 / qblur=0.5 / vbv_maxrate=3075 / vbv_bufsize=4100 / nal_hrd=vbr / filler=0 / ip_ratio=1.40 / aq=1:1.00
Language : English
Default : Yes
Forced : No

Audio
ID : 2
Format : E-AC-3
Format/Info : Enhanced AC-3
Commercial name : Dolby Digital Plus
Codec ID : A_EAC3
Duration : 51 min 50 s
Bit rate mode : Constant
Bit rate : 448 kb/s
Channel(s) : 6 channels
Channel layout : L R C LFE Ls Rs
Sampling rate : 48.0 kHz
Frame rate : 31.250 FPS (1536 SPF)
Compression mode : Lossy
Stream size : 166 MiB (18%)
Language : English
Service kind : Complete Main
Default : Yes
Forced : No

Text #1
ID : 3
Format : UTF-8
Codec ID : S_TEXT/UTF8
Codec ID/Info : UTF-8 Plain Text
Duration : 49 min 27 s
Bit rate : 79 b/s
Count of elements : 439
Stream size : 28.8 KiB (0%)
Language : Ukrainian
Default : Yes
Forced : No

Text #2
ID : 4
Format : UTF-8
Codec ID : S_TEXT/UTF8
Codec ID/Info : UTF-8 Plain Text
Duration : 48 min 17 s
Bit rate : 50 b/s
Count of elements : 435
Stream size : 17.8 KiB (0%)
Language : English
Default : No
Forced : No

Джерело:
Особиста оцінка: 0 - не дивився


Бронзовий реліз (на рейтинг впливає 75% завантаженого)
 Трекер:    Зареєстрований   

Завантажити / скачати серіал українською



відео для новачків



 Зареєстрований:   2019-03-23 02:10
 Розмір:   5.5 GB 
 Оцінка серіалу:   10/10 (Голосів: 8)
   
Vitt 
Поважний учасник


З нами з: 17.01.11
Востаннє: 30.11.20
Повідомлень: 168

2019-03-24 14:31  
Непогано.
Не гірше ніж перший сезон.

Anonymous 







2019-10-04 11:32  
На жаль мушу покинути роздачу.
але субтитри зберіг і якщо комусь будуть потрібні то пишіть тут у коментарях.//

kotiko4321 
Свій


З нами з: 18.11.16
Востаннє: 28.11.20
Повідомлень: 81

2019-10-08 16:54  
Дуже дякую. Гарний серіал
Ваш часовий пояс: GMT + 2 Години

Нова тема   Відповісти