Доведена невинність (Сезон 1, серії 1-9) / Proven Innocent (Season 1, episodes 1-9) (2019) AVC

Нові коментарі

Нова тема   Відповісти
Автор Повідомлення
Anonymous 







2019-03-23 01:52  
Доведена невинність (Сезон 1, серії 1-9) / Proven Innocent (Season 1, episodes 1-9) (2019) AVC

Доведена невинність (Сезон 1, серії 1-9) / Proven Innocent (Season 1, episodes 1-9) (2019) AVC


Жанр: драма
Країна: США



Кінокомпанія / телеканал: 20th Century Fox Television, Danny Strong Productions
Режисер: Говард Дойч, Патрісія Рігген, Анна Мастро
Актори/ролі озвучують: Рашель Лефевр, Кейтлін Менер, Клер О'Коннор, Кейсі Таттон, Лорі Голден, Бен Мартен, Катрін Лідстоун, Дженніфер Парсонс, Елейн Гендрікс, Хайді Йоханнінгмейер

Сюжет:
Чудова кримінальна драма про правозахисницю, що через особисті травми присвятила життя боротьбі з помилками правоохоронної системи та захисту її жертв.

Головна героїня – талановитий юрист Меделін Скотт. Ще у підлітковому віці вона була несправедливо засуджена за вбивство, якого не скоювала. Юні роки Меделін пройшли за гратами, але незабаром їй вдалося звільнитись. Незважаючи на те, що жорстоке випробування долі та життєві поневіряння, вона змогла знайти в собі сили, щоб продовжити боротьбу з несправедливістю і упередженістю судової системи.
Меделін вивчилася на юриста, а після цього очолила адвокатську компанію, яка тепер займається розслідуванням складних і заплутаних кримінальних справ…


Тривалість: 1 серія: ~ 44 хв. (цілком серій: 9)
Перелік серій
1. Pilot
2. The Burden of Truth
3. A Minor Confession
4. The Shame Game
5. Cross to Bear
6. A CinderHella Story
7. Living and Dying in East Cleveland
8. The Struggle for Stonewall
9. Acceptable Losses
Якість:
Відео:
кодек:
розмір кадру: 720 х 400
бітрейт: 1100 кб/с

Аудіо:
мова: українська
переклад: багатоголосий закадровий
кодек: 5.1, 2.0 (6-9 серії)
бітрейт: 384 кб/с, 192 кб/с (7-9 серії)

Джерело озвучення:
DniproFilm
MI
General
Unique ID : 153038049293015403695502805282433687751 (0x73220E6193A4ECEEFC8EC87AA80260C7)
Complete name : Proven Innocent S01E01 (2019) AVC [UKR] [Hurtom].
Format :
Format version : Version 4
File size : 495 MiB
Duration : 46 min 22 s
Overall bit rate : 1 491 kb/s
Movie name : Доведена невиннiсть (Сезон 1, серія 1) (2019)
Encoded date : UTC 2019-03-20 20:42:06
Writing application : v30.1.0 ('Forever And More') 64-bit
Writing library : libebml v1.3.6 + v1.4.9
Cover : Yes
Attachments : cover.jpg

Video
ID : 1
Format : AVC
Format/Info : Advanced Video Codec
Format profile : [email protected]
Format settings : CABAC / 5 Ref Frames
Format settings, CABAC : Yes
Format settings, ReFrames : 5 frames
Codec ID : V_MPEG4/ISO/AVC
Duration : 46 min 22 s
Bit rate : 1 100 kb/s
Width : 720 pixels
Height : 400 pixels
Display aspect ratio : 16:9
Frame rate mode : Constant
Frame rate : 23.976 (24000/1001) FPS
Color space : YUV
Chroma subsampling : 4:2:0
Bit depth : 8 bits
Scan type : Progressive
Bits/(Pixel*Frame) : 0.159
Stream size : 367 MiB (74%)
Writing library : core 152 r2851M ba24899
Encoding settings : cabac=1 / ref=5 / deblock=1:-1:-1 / analyse=0x3:0x113 / me=umh / subme=9 / psy=1 / psy_rd=1.00:0.15 / mixed_ref=1 / me_range=16 / chroma_me=1 / trellis=2 / 8x8dct=1 / cqm=0 / deadzone=21,11 / fast_pskip=1 / chroma_qp_offset=-3 / threads=12 / lookahead_threads=1 / sliced_threads=0 / nr=0 / decimate=1 / interlaced=0 / bluray_compat=0 / constrained_intra=0 / bframes=3 / b_pyramid=2 / b_adapt=2 / b_bias=0 / direct=3 / weightb=1 / open_gop=0 / weightp=2 / keyint=250 / keyint_min=23 / scenecut=40 / intra_refresh=0 / rc_lookahead=50 / rc=abr / mbtree=1 / bitrate=1100 / ratetol=1.0 / qcomp=0.60 / qpmin=0 / qpmax=69 / qpstep=4 / ip_ratio=1.40 / aq=1:1.00
Language : English
Default : Yes
Forced : No

Audio
ID : 2
Format : AC-3
Format/Info : Audio Coding 3
Commercial name : Dolby Digital
Codec ID : A_AC3
Duration : 46 min 22 s
Bit rate mode : Constant
Bit rate : 384 kb/s
Channel(s) : 6 channels
Channel layout : L R C LFE Ls Rs
Sampling rate : 48.0 kHz
Frame rate : 31.250 FPS (1536 SPF)
Bit depth : 16 bits
Compression mode : Lossy
Stream size : 127 MiB (26%)
Language : Ukrainian
Service kind : Complete Main
Default : Yes
Forced : Yes
Скріншоти




Джерело:


Авторський реліз (завантажувати можна без реєстрації)
 Трекер:    Зареєстрований   

Завантажити / скачати серіал українською



відео для новачків



 Зареєстрований:   2019-04-19 23:25
 Розмір:   4.05 GB 
 Оцінка серіалу:   8.4/10 (Голосів: 18)
   
don pedro 
Забанено
Забанено


З нами з: 29.06.11
Востаннє: 22.04.19
Повідомлень: 13523

2019-03-24 00:50  
Я Лефевр ще з "Сутінок" запам`ятав.
SrGr 
Свій


З нами з: 15.01.12
Востаннє: 23.04.19
Повідомлень: 74

2019-03-27 21:43  
Зміг витримати трохи більше половини першої серії. Нічого не відбувається, лише бла-бла-бла. Картинка якісна. Мабуть, на любителя.
Victor_Scythian 
VIP


З нами з: 06.01.17
Востаннє: 23.04.19
Повідомлень: 254

2019-03-28 21:07  
Чесно кажучи взагалі НЕ зайшов... дивився онлайн, не додивився навіть 1шу серію...
Kovex 
VIP


З нами з: 01.09.09
Востаннє: 23.04.19
Повідомлень: 474

2019-03-30 18:40  
Привіт, коли очікувати наступні серії?
Kovex 
VIP


З нами з: 01.09.09
Востаннє: 23.04.19
Повідомлень: 474

2019-04-02 22:50  
?
Anonymous 







2019-04-04 14:51  
Додано 6-7 серії
Anonymous 







2019-04-09 17:50  
+ 8 серія
taksist 
Поважний учасник


З нами з: 10.12.12
Востаннє: 23.04.19
Повідомлень: 246

2019-04-09 18:47  
невинуватість.
дебіли, бл.

Anonymous 







2019-04-19 23:25  
додано 9 серію
Ваш часовий пояс: GMT + 2 Години

Нова тема   Відповісти