Ґрінч / The Grinch (2018) 1080p H.265 Ukr/Eng | Sub Eng

Нові коментарі

Нова тема   Відповісти
Автор Повідомлення
Anonymous 







2019-03-23 00:06  
Ґрінч / The Grinch (2018) 1080p H.265 Ukr/Eng | Sub Eng

Ґрінч / The Grinch (2018) 1080p H.265 Ukr/Eng | Sub Eng
Усі українські постери:



Ґрінч / The Grinch (2018) 1080p H.265 Ukr/Eng | Sub Eng







Жанр: анімація, дитячий, казка
Країна: Франція, Китай, Японія, США
Кінокомпанія: Illumination Entertainment, Universal Studios
Режисер: Яроу Чейні / Yarrow Cheney, Скотт Мосьє / Scott Mosier
Актори: Бенедикт Камбербетч / Benedict Cumberbatch, Камерон Шіллі / Cameron Seely, Рашіда Джонс / Rashida Jones

Сюжет:
Неподалік від Хтовська (Whoville) в прихованій від сторонніх очей печері зі своїм песиком Максом живе похмурий зелений Ґрінч. У Хтовську живуть щасливі люди, а Ґрінч майже завжди похмурий і сумний. Наближається Різдво. Хтовці (жителі Хтовська) із захватом готуються до свята - прикрашають будинки, готують подарунки один одному. Ґрінч ненавидить Різдво, його дратує коли всі радіють, навіть саме слово "Різдво" він не може вимовити, так йому гидко. І цього року Ґрінч вірішує позбавити Хтовськ Різдва назавжди.

Тривалість: 01:25:49
Якість:
Відео:
кодек: H.265 (HEVC)
розмір кадру: 1920 x 800
бітрейт: 4084 кб/с
бітова глибина: 10 біт
Увага! Перед завантаженням переконайтесь, що ваш пристрій відтворення (та/або ПЗ) підтримує H.265 (HEVC)

Аудіо # 1:
мова: українська
переклад: професійний дубльований
кодек: 2.0
бітрейт: 192 кб/с

Аудіо # 2:
мова: англійська
переклад: оригінал
кодек: 5.1
бітрейт: 448 кб/с

Субтитри # 1:
мова: українська (Forced),
тип: програмні (м'які)
формат: *.srt

Субтитри # 2:
мова: англійська (Full),
тип: програмні (м'які)
формат: *.srt

Субтитри # 3:
мова: англійська (SDH),
тип: програмні (м'які)
формат: *.srt


Info
Код:
General
Unique ID                                : 332079609560309216976461539715725574511 (0xF9D434D67372D7E61FE81EF62ECEC16F)
Complete name                            : F:\Video\The Grinch (2018) 1080p H.265 [UKR_ENG] [Hurtom].
Format                                   :
Format version                           : Version 4 / Version 2
File size                                : 2.83 GiB
Duration                                 : 1 h 25 min
Overall bit rate                         : 4 727 kb/s
Movie name                               : The Grinch (2018)
Encoded date                             : UTC 2019-03-22 14:17:51
Writing application                      : v20.0.0 ('I Am The Sun') 64-bit
Writing library                          : libebml v1.3.5 + v1.4.8
Cover                                    : Yes
Attachments                              : cover.jpg

Video
ID                                       : 1
Format                                   : HEVC
Format/Info                              : High Efficiency Video Coding
Format profile                           : Main [email protected]@High
Codec ID                                 : V_MPEGH/ISO/HEVC
Duration                                 : 1 h 25 min
Bit rate                                 : 4 084 kb/s
Width                                    : 1 920 pixels
Height                                   : 800 pixels
Display aspect ratio                     : 2.40:1
Frame rate mode                          : Constant
Frame rate                               : 23.976 (24000/1001) FPS
Color space                              : YUV
Chroma subsampling                       : 4:2:0
Bit depth                                : 10 bits
Bits/(Pixel*Frame)                       : 0.111
Stream size                              : 2.45 GiB (86%)
Title                                    : The Grinch (2018)
Writing library                          : x265 2.9+2-7e978ed93d60:[Windows][GCC 8.2.0][64 bit] 10bit
Encoding settings                        : cpuid=1111039 / frame-threads=4 / numa-pools=14,14 / wpp / pmode / no-pme / no-psnr / no-ssim / log-level=2 / input-csp=1 / input-res=1920x800 / interlace=0 / total-frames=123456 / level-idc=41 / high-tier=1 / uhd-bd=0 / ref=3 / no-allow-non-conformance / no-repeat-headers / annexb / no-aud / no-hrd / info / hash=0 / no-temporal-layers / open-gop / min-keyint=23 / keyint=240 / gop-lookahead=0 / bframes=4 / b-adapt=2 / b-pyramid / bframe-bias=0 / rc-lookahead=20 / lookahead-slices=5 / scenecut=40 / radl=0 / no-intra-refresh / ctu=32 / min-cu-size=8 / no-rect / no-amp / max-tu-size=32 / tu-inter-depth=1 / tu-intra-depth=1 / limit-tu=0 / rdoq-level=0 / dynamic-rd=0.00 / no-ssim-rd / signhide / no-tskip / nr-intra=0 / nr-inter=0 / no-constrained-intra / no-strong-intra-smoothing / max-merge=2 / limit-refs=0 / no-limit-modes / me=2 / subme=5 / merange=32 / temporal-mvp / weightp / no-weightb / no-analyze-src-pics / deblock=-3:-3 / no-sao / no-sao-non-deblock / rd=3 / no-early-skip / rskip / no-fast-intra / no-tskip-fast / no-cu-lossless / no-b-intra / no-splitrd-skip / rdpenalty=0 / psy-rd=2.00 / psy-rdoq=0.00 / no-rd-refine / no-lossless / cbqpoffs=0 / crqpoffs=0 / rc=crf / crf=17.0 / qcomp=0.60 / qpstep=4 / stats-write=0 / stats-read=0 / vbv-maxrate=50000 / vbv-bufsize=50000 / vbv-init=0.9 / crf-max=0.0 / crf-min=0.0 / ipratio=1.40 / pbratio=1.30 / aq-mode=1 / aq-strength=1.00 / cutree / zone-count=0 / no-strict-cbr / qg-size=32 / no-rc-grain / qpmax=69 / qpmin=0 / no-const-vbv / sar=0 / overscan=0 / videoformat=5 / range=0 / colorprim=1 / transfer=1 / colormatrix=1 / chromaloc=0 / display-window=0 / max-cll=0,0 / min-luma=0 / max-luma=1023 / log2-max-poc-lsb=8 / vui-timing-info / vui-hrd-info / slices=1 / no-opt-qp-pps / no-opt-ref-list-length-pps / no-multi-pass-opt-rps / scenecut-bias=0.05 / no-opt-cu-delta-qp / no-aq-motion / no-hdr / no-hdr-opt / no-dhdr10-opt / no-idr-recovery-sei / analysis-reuse-level=5 / scale-factor=0 / refine-intra=0 / refine-inter=0 / refine-mv=0 / no-limit-sao / ctu-info=0 / no-lowpass-dct / refine-mv-type=0 / copy-pic=1 / max-ausize-factor=1.0 / no-dynamic-refine / no-single-sei
Language                                 : English
Default                                  : Yes
Forced                                   : No
Color range                              : Limited
Color primaries                          : BT.709
Transfer characteristics                 : BT.709
Matrix coefficients                      : BT.709

Audio #1
ID                                       : 2
Format                                   : AC-3
Format/Info                              : Audio Coding 3
Codec ID                                 : A_AC3
Duration                                 : 1 h 25 min
Bit rate mode                            : Constant
Bit rate                                 : 192 kb/s
Channel(s)                               : 2 channels
Channel positions                        : Front: L R
Sampling rate                            : 48.0 kHz
Frame rate                               : 31.250 FPS (1536 SPF)
Bit depth                                : 16 bits
Compression mode                         : Lossy
Stream size                              : 118 MiB (4%)
Title                                    : ПД - iTunes - 2.0  @ 192 kbps
Language                                 : Ukrainian
Service kind                             : Complete Main
Default                                  : Yes
Forced                                   : Yes

Audio #2
ID                                       : 3
Format                                   : AC-3
Format/Info                              : Audio Coding 3
Codec ID                                 : A_AC3
Duration                                 : 1 h 25 min
Bit rate mode                            : Constant
Bit rate                                 : 448 kb/s
Channel(s)                               : 6 channels
Channel positions                        : Front: L C R, Side: L R, LFE
Sampling rate                            : 48.0 kHz
Frame rate                               : 31.250 FPS (1536 SPF)
Bit depth                                : 16 bits
Compression mode                         : Lossy
Stream size                              : 275 MiB (9%)
Title                                    : Original - 5.1 @ 448 kbps
Language                                 : English
Service kind                             : Complete Main
Default                                  : No
Forced                                   : No

Text #1
ID                                       : 4
Format                                   : UTF-8
Codec ID                                 : S_TEXT/UTF8
Codec ID/Info                            : UTF-8 Plain Text
Duration                                 : 1 h 17 min
Bit rate                                 : 1 b/s
Count of elements                        : 27
Stream size                              : 1.13 KiB (0%)
Title                                    : Forced
Language                                 : Ukrainian
Default                                  : Yes
Forced                                   : Yes

Text #2
ID                                       : 5
Format                                   : UTF-8
Codec ID                                 : S_TEXT/UTF8
Codec ID/Info                            : UTF-8 Plain Text
Duration                                 : 1 h 17 min
Bit rate                                 : 52 b/s
Count of elements                        : 1024
Stream size                              : 30.0 KiB (0%)
Title                                    : Full
Language                                 : English
Default                                  : No
Forced                                   : No

Text #3
ID                                       : 6
Format                                   : UTF-8
Codec ID                                 : S_TEXT/UTF8
Codec ID/Info                            : UTF-8 Plain Text
Duration                                 : 1 h 20 min
Bit rate                                 : 60 b/s
Count of elements                        : 1304
Stream size                              : 35.7 KiB (0%)
Title                                    : SDH
Language                                 : English
Default                                  : No
Forced                                   : No

Menu
00:00:00.000                             : en:Chapter 1
00:05:40.298                             : en:Chapter 2
00:10:35.927                             : en:Chapter 3
00:14:14.103                             : en:Chapter 4
00:17:45.106                             : en:Chapter 5
00:22:19.296                             : en:Chapter 6
00:26:28.337                             : en:Chapter 7
00:30:45.093                             : en:Chapter 8
00:34:46.584                             : en:Chapter 9
00:38:37.190                             : en:Chapter 10
00:44:40.595                             : en:Chapter 11
00:47:27.678                             : en:Chapter 12
00:52:37.488                             : en:Chapter 13
00:56:33.181                             : en:Chapter 14
01:01:04.995                             : en:Chapter 15
01:05:34.639                             : en:Chapter 16
01:07:23.456                             : en:Chapter 17
01:12:14.914                             : en:Chapter 18
01:14:12.782                             : en:Chapter 19
01:18:08.309                             : en:Chapter 20
Світлини





Подяка пану kryk-v.ya за аудіо і субтитри

Джерело: &
Особиста оцінка: 0 - не дивився


 Трекер:    Зареєстрований   

Завантажити / скачати мультфільм українською



відео для новачків



 Зареєстрований:   2019-03-23 00:06
 Розмір:   2.83 GB 
 Оцінка мультфільму:   9.9/10 (Голосів: 28)
   
Інші релізи
   Ґрінч / The Grinch (2018) UHD Remux 2160p 4K HDR H.265 Ukr/Eng | Sub Eng Argentum  4 / 0   39.01 GB   2019-03-24 10:43 
   Ґрінч / The Grinch (2018) antik_2008  40 / 0   1.44 GB   2019-03-24 01:03 
   Ґрінч / The Grinch (2018) 1080p Ukr/Eng | Sub Eng antik_2008  34 / 0   6.68 GB   2019-03-23 21:03 
   Ґрінч / The Grinch (2018) AVC Ukr/Eng | Sub Eng 11FrYkT  74 / 1   1.67 GB   2019-03-22 17:22 
   Ґрінч / The Grinch (2018) 720p Ukr/Eng | Sub Eng 11FrYkT  34 / 0   3.78 GB   2019-03-22 14:57 
   Ґрінч / The Grinch (2018) Remux 1080p Ukr/Eng | Sub Eng kryk-v.ya.  9 / 0   22.01 GB   2019-03-22 13:50 
Ваш часовий пояс: GMT + 2 Години

Нова тема   Відповісти