Полтергейст / Poltergeist (1982) 1080p H.265 Ukr/Eng | Sub Eng

Нові коментарі

Нова тема   Відповісти
Автор Повідомлення
-Star-Lord- 
VIP


З нами з: 09.08.18
Востаннє: 23.04.19
Повідомлень: 737

2019-03-23 01:00  
Полтергейст / Poltergeist (1982) 1080p H.265 Ukr/Eng | Sub Eng

Полтергейст / Poltergeist (1982) 1080p H.265 Ukr/Eng | Sub Eng


Жанр: жахи, трилер
Країна: США
Кінокомпанія: Metro-Goldwyn-Mayer (MGM)
Режисер: Тоб Гупер
Актори: Крейг Т. Нельсон, ДжоБет Вільямс, Беатріс Стрейт, Домінік Данн, Олівер Робінс, Хезер О’Рурк, Майкл МакМенус, Вірджинія Кайсер, Мартін Казелла, Річард Лосон, Зельда Рубінштейн, Джеймс Карен

Сюжет:
Вони тут ... Спочатку вони здаються примарними, граючи в хованки в заміському будинку Фрілінг. Але потім стає по-справжньому страшно!
Хмари згущуються, ожилі дерева нападають, а крихітку Керол Енн Фрілінг засмоктує в спектральну порожнечу.
І поки її сім'я бореться з низкою кошмарів і намагається врятувати дівчинку, по сусідству, десь поряд зачаїлося щось ...

Тривалість: 01:54:28
Якість:
Відео:
кодек: H.265 (HEVC)
розмір кадру: 1916 x 798
бітрейт: 10 491 кб/с
бітова глибина: 10 біт
Увага! Перед завантаженням переконайтесь, що ваш пристрій відтворення (та/або ПЗ) підтримує H.265 (HEVC)

Аудіо # 1:
мова: українська
переклад: багатоголосий закадровий
кодек: AC-3 5.1
бітрейт: 384 кб/с

Аудіо # 2:
мова: англійська
переклад: оригінал
кодек: AC-3 5.1
бітрейт: 640 кб/с

Субтитри # 1:
мова: англійська (Full),
тип: програмні (м'які)
формат: *.srt


Info
Код:
General
Unique ID                                : 234339113897767458011187457090498254695 (0xB04C12584A1101B3450401960C52D767)
Complete name                            : F:\Video\Poltergeist (1982) 1080p H.265 [UKR_ENG] [Hurtom].
Format                                   :
Format version                           : Version 4 / Version 2
File size                                : 9.21 GiB
Duration                                 : 1 h 54 min
Overall bit rate                         : 11.5 Mb/s
Movie name                               : Poltergeist (1982)
Encoded date                             : UTC 2019-03-22 14:27:06
Writing application                      : v20.0.0 ('I Am The Sun') 64-bit
Writing library                          : libebml v1.3.5 + v1.4.8
Cover                                    : Yes
Attachments                              : Cover.jpg

Video
ID                                       : 1
Format                                   : HEVC
Format/Info                              : High Efficiency Video Coding
Format profile                           : Main [email protected]@High
Codec ID                                 : V_MPEGH/ISO/HEVC
Duration                                 : 1 h 54 min
Bit rate                                 : 10.5 Mb/s
Width                                    : 1 916 pixels
Height                                   : 798 pixels
Display aspect ratio                     : 2.40:1
Frame rate mode                          : Constant
Frame rate                               : 23.976 (23976/1000) FPS
Original frame rate                      : 23.976 (24000/1001) FPS
Color space                              : YUV
Chroma subsampling                       : 4:2:0
Bit depth                                : 10 bits
Bits/(Pixel*Frame)                       : 0.286
Stream size                              : 8.39 GiB (91%)
Title                                    : Poltergeist (1982)
Writing library                          : x265 3.0_Au+4-dcbec33bfb0f:[Windows][MSVC 1916][64 bit] 10bit
Encoding settings                        : cpuid=1111039 / frame-threads=3 / numa-pools=12 / wpp / no-pmode / no-pme / no-psnr / no-ssim / log-level=2 / input-csp=1 / input-res=1916x798 / interlace=0 / total-frames=86188 / level-idc=41 / high-tier=1 / uhd-bd=0 / ref=5 / no-allow-non-conformance / no-repeat-headers / annexb / no-aud / no-hrd / info / hash=0 / no-temporal-layers / open-gop / min-keyint=23 / keyint=240 / gop-lookahead=0 / bframes=16 / b-adapt=2 / b-pyramid / bframe-bias=0 / rc-lookahead=60 / lookahead-slices=4 / scenecut=40 / radl=0 / no-splice / no-intra-refresh / ctu=32 / min-cu-size=8 / rect / amp / max-tu-size=32 / tu-inter-depth=4 / tu-intra-depth=4 / limit-tu=1 / rdoq-level=2 / dynamic-rd=0.00 / no-ssim-rd / signhide / no-tskip / nr-intra=0 / nr-inter=0 / no-constrained-intra / no-strong-intra-smoothing / max-merge=4 / limit-refs=2 / limit-modes / me=3 / subme=7 / merange=57 / temporal-mvp / weightp / weightb / no-analyze-src-pics / deblock=-3:-3 / no-sao / no-sao-non-deblock / rd=6 / no-early-skip / no-rskip / no-fast-intra / no-tskip-fast / no-cu-lossless / no-b-intra / no-splitrd-skip / rdpenalty=0 / psy-rd=2.00 / psy-rdoq=1.00 / no-rd-refine / no-lossless / cbqpoffs=0 / crqpoffs=0 / rc=crf / crf=20.0 / qcomp=0.60 / qpstep=4 / stats-write=0 / stats-read=0 / vbv-maxrate=50000 / vbv-bufsize=50000 / vbv-init=0.9 / crf-max=0.0 / crf-min=0.0 / ipratio=1.40 / pbratio=1.30 / aq-mode=1 / aq-strength=1.00 / no-cutree / zone-count=0 / no-strict-cbr / qg-size=32 / no-rc-grain / qpmax=69 / qpmin=0 / no-const-vbv / sar=1 / overscan=0 / videoformat=5 / range=0 / colorprim=2 / transfer=2 / colormatrix=2 / chromaloc=0 / display-window=0 / max-cll=0,0 / min-luma=0 / max-luma=1023 / log2-max-poc-lsb=8 / vui-timing-info / vui-hrd-info / slices=1 / no-opt-qp-pps / no-opt-ref-list-length-pps / no-multi-pass-opt-rps / scenecut-bias=0.05 / no-opt-cu-delta-qp / no-aq-motion / no-hdr / no-hdr-opt / no-dhdr10-opt / no-idr-recovery-sei / analysis-reuse-level=5 / scale-factor=0 / refine-intra=0 / refine-inter=0 / refine-mv=0 / refine-ctu-distortion=0 / no-limit-sao / ctu-info=0 / no-lowpass-dct / refine-analysis-type=0 / copy-pic=1 / max-ausize-factor=1.0 / no-dynamic-refine / no-single-sei / no-hevc-aq / qp-adaptation-range=1.00
Default                                  : Yes
Forced                                   : No

Audio #1
ID                                       : 2
Format                                   : AC-3
Format/Info                              : Audio Coding 3
Codec ID                                 : A_AC3
Duration                                 : 1 h 54 min
Bit rate mode                            : Constant
Bit rate                                 : 384 kb/s
Channel(s)                               : 6 channels
Channel positions                        : Front: L C R, Side: L R, LFE
Sampling rate                            : 48.0 kHz
Frame rate                               : 31.250 FPS (1536 SPF)
Bit depth                                : 16 bits
Compression mode                         : Lossy
Stream size                              : 314 MiB (3%)
Title                                    : БЗ - ICTV
Language                                 : Ukrainian
Service kind                             : Complete Main
Default                                  : Yes
Forced                                   : Yes

Audio #2
ID                                       : 3
Format                                   : AC-3
Format/Info                              : Audio Coding 3
Codec ID                                 : A_AC3
Duration                                 : 1 h 54 min
Bit rate mode                            : Constant
Bit rate                                 : 640 kb/s
Channel(s)                               : 6 channels
Channel positions                        : Front: L C R, Side: L R, LFE
Sampling rate                            : 48.0 kHz
Frame rate                               : 31.250 FPS (1536 SPF)
Bit depth                                : 16 bits
Compression mode                         : Lossy
Stream size                              : 524 MiB (6%)
Title                                    : Original
Language                                 : English
Service kind                             : Complete Main
Default                                  : No
Forced                                   : No

Text
ID                                       : 4
Format                                   : UTF-8
Codec ID                                 : S_TEXT/UTF8
Codec ID/Info                            : UTF-8 Plain Text
Duration                                 : 1 h 53 min
Bit rate                                 : 47 b/s
Count of elements                        : 1289
Stream size                              : 39.7 KiB (0%)
Title                                    : Full
Language                                 : English
Default                                  : No
Forced                                   : No

Menu
00:00:00.000                             : en:The Star Spangled Banner
00:04:38.612                             : en:Credits
00:07:00.587                             : en:Remotes and Rituals
00:11:45.413                             : en:Bedtime Joint Time
00:16:44.712                             : en:Storm Jitters
00:21:24.950                             : en:They're Here
00:24:33.639                             : en:TV People
00:28:43.388                             : en:Moving Objects
00:34:14.761                             : en:Robbie vs. The Tree
00:37:16.067                             : en:Taking Carol Anne
00:42:46.397                             : en:Spinning Room
00:45:46.619                             : en:Calling Carol Anne
00:50:25.856                             : en:She Just Moved Through Me
00:53:35.045                             : en:The Light
00:59:45.624                             : en:Marty's Midnight Snack
01:03:12.455                             : en:Night Visitors
01:07:24.040                             : en:Departures
01:11:13.769                             : en:Expansion Plots
01:14:10.946                             : en:Enter Tangina
01:16:40.930                             : en:Window to the Next Plane
01:22:01.583                             : en:Run to the Light
01:24:56.758                             : en:Hope Across Dimensions
01:29:06.007                             : en:Reunion
01:33:03.244                             : en:Moving Day
01:35:37.231                             : en:Bath and Bedtime
01:38:56.264                             : en:The Clown and The Beast
01:42:18.299                             : en:From Evil's Grasp
01:45:47.675                             : en:You Left the Bodies!
01:47:38.619                             : en:Escapees from Implosion
01:49:40.741                             : en:End Credits
Світлини





Джерело: &
Особиста оцінка: 0 - не дивився


Срібний реліз (на рейтинг впливає 50% завантаженого)
 Трекер:    Зареєстрований   

Завантажити / скачати фільм українською



відео для новачків



 Зареєстрований:   2019-03-23 01:00
 Розмір:   9.21 GB 
 Оцінка фільму:   10/10 (Голосів: 1)
   
Інші релізи
   Полтергейст / Poltergeist (1982) 1080p Ukr/Eng | Sub Eng boroznaya  2 / 0   7.76 GB   2018-06-07 10:23 
Ваш часовий пояс: GMT + 2 Години

Нова тема   Відповісти