Місяць / Місяць 2112 / Moon (2009) 1080p H.265 3xUkr/Eng | Sub Ukr/Eng

Нові коментарі

Нова тема   Відповісти
Автор Повідомлення
-Star-Lord- 
VIP


З нами з: 09.08.18
Востаннє: 22.04.19
Повідомлень: 736

2019-03-23 00:56  
Місяць / Місяць 2112 / Moon (2009) 1080p H.265 3xUkr/Eng | Sub Ukr/Eng

Місяць / Місяць 2112 / Moon (2009) 1080p H.265 3xUkr/Eng | Sub Ukr/Eng


Жанр: фантастика, трилер, психологічний
Країна: Велика Британія
Кінокомпанія: Liberty Films UK, Xingu Films, Limelight Fund
Режисер: Дункан Джонс
Актори: Кевін Спейсі, Сем Роквелл, Кая Скоделаріо, Метт Беррі, Малькольм Стюарт, Бенедікт Вонґ

Сюжет:
У Сема Белла добігає кінця трирічний котракт, згідно якого він самотньо жив на місячній базі, видобуваючи гелій-3 - єдиний порятунок людства від енергетичної кризи. За цей час у нього було вдосталь можливостей як обміркувати своє минуле та зроблені помилки, так і спланувати майбутнє життя - достроковий вихід на пенсію та відпочинок з дружиною і донечкою. Але за кілька тижнів до відльоту розмірене життя Сема порушується незрозумілими видіннями, а що ближчає кінець його добровільного ув'язнення, тим зрозумілішим стає той дивний факт, що у Місяця є своя думка щодо подальшої долі Белла.

Тривалість: 01:37:09
Якість:

Відео:
кодек: H.265 (HEVC)
розмір кадру: 1920 x 800
бітрейт: 6 758 кб/с
бітова глибина: 10 біт
Увага! Перед завантаженням переконайтесь, що ваш пристрій відтворення (та/або ПЗ) підтримує H.265 (HEVC)

Аудіо # 1:
мова: українська
переклад: професійний дубльований
кодек: AC-3 5.1
бітрейт: 384 кб/с

Аудіо # 2:
мова: українська
переклад: багатоголосий закадровий
кодек: AC-3 2.0
бітрейт: 192 кб/с

Аудіо # 3:
мова: українська
переклад: багатоголосий закадровий | "Три Крапки"
кодек: AC-3 2.0
бітрейт: 256 кб/с

Аудіо # 4:
мова: англійська
переклад: оригінал
кодек: AC-3 2.0
бітрейт: 192 кб/с

Субтитри # 1:
мова: українська (Full),
тип: програмні (м'які)
формат: *.srt

Субтитри # 2:
мова: англійська (Full),
тип: програмні (м'які)
формат: *.srt


Info
Код:
General
Unique ID                                : 144492838952897475470698704922325866646 (0x6CB44EFBBFD7B631A157548B8F84D896)
Complete name                            : F:\Video\Moon (2009) 1080p H.265 [3xUKR_ENG] [Hurtom].
Format                                   :
Format version                           : Version 4 / Version 2
File size                                : 5.28 GiB
Duration                                 : 1 h 37 min
Overall bit rate                         : 7 785 kb/s
Movie name                               : Moon (2009)
Encoded date                             : UTC 2019-03-22 08:28:01
Writing application                      : v20.0.0 ('I Am The Sun') 64-bit
Writing library                          : libebml v1.3.5 + v1.4.8
Cover                                    : Yes
Attachments                              : Cover.jpg

Video
ID                                       : 1
Format                                   : HEVC
Format/Info                              : High Efficiency Video Coding
Format profile                           : Main [email protected]@High
Codec ID                                 : V_MPEGH/ISO/HEVC
Duration                                 : 1 h 37 min
Bit rate                                 : 6 758 kb/s
Width                                    : 1 920 pixels
Height                                   : 800 pixels
Display aspect ratio                     : 2.40:1
Frame rate mode                          : Constant
Frame rate                               : 23.976 (23976/1000) FPS
Original frame rate                      : 23.976 (24000/1001) FPS
Color space                              : YUV
Chroma subsampling                       : 4:2:0
Bit depth                                : 10 bits
Bits/(Pixel*Frame)                       : 0.183
Stream size                              : 4.59 GiB (87%)
Title                                    : Moon (2009)
Writing library                          : x265 3.0_Au+4-dcbec33bfb0f:[Windows][MSVC 1916][64 bit] 10bit
Encoding settings                        : cpuid=1111039 / frame-threads=3 / numa-pools=12 / wpp / no-pmode / no-pme / no-psnr / no-ssim / log-level=2 / input-csp=1 / input-res=1920x800 / interlace=0 / total-frames=64743 / level-idc=41 / high-tier=1 / uhd-bd=0 / ref=5 / no-allow-non-conformance / no-repeat-headers / annexb / no-aud / no-hrd / info / hash=0 / no-temporal-layers / open-gop / min-keyint=23 / keyint=240 / gop-lookahead=0 / bframes=16 / b-adapt=2 / b-pyramid / bframe-bias=0 / rc-lookahead=60 / lookahead-slices=4 / scenecut=40 / radl=0 / no-splice / no-intra-refresh / ctu=32 / min-cu-size=8 / rect / amp / max-tu-size=32 / tu-inter-depth=4 / tu-intra-depth=4 / limit-tu=1 / rdoq-level=2 / dynamic-rd=0.00 / no-ssim-rd / signhide / no-tskip / nr-intra=0 / nr-inter=0 / no-constrained-intra / no-strong-intra-smoothing / max-merge=4 / limit-refs=2 / limit-modes / me=3 / subme=7 / merange=57 / temporal-mvp / weightp / weightb / no-analyze-src-pics / deblock=-3:-3 / no-sao / no-sao-non-deblock / rd=6 / no-early-skip / no-rskip / no-fast-intra / no-tskip-fast / no-cu-lossless / no-b-intra / no-splitrd-skip / rdpenalty=0 / psy-rd=2.00 / psy-rdoq=1.00 / no-rd-refine / no-lossless / cbqpoffs=0 / crqpoffs=0 / rc=crf / crf=20.5 / qcomp=0.60 / qpstep=4 / stats-write=0 / stats-read=0 / vbv-maxrate=50000 / vbv-bufsize=50000 / vbv-init=0.9 / crf-max=0.0 / crf-min=0.0 / ipratio=1.40 / pbratio=1.30 / aq-mode=1 / aq-strength=1.00 / no-cutree / zone-count=0 / no-strict-cbr / qg-size=32 / no-rc-grain / qpmax=69 / qpmin=0 / no-const-vbv / sar=1 / overscan=0 / videoformat=5 / range=0 / colorprim=2 / transfer=2 / colormatrix=2 / chromaloc=0 / display-window=0 / max-cll=0,0 / min-luma=0 / max-luma=1023 / log2-max-poc-lsb=8 / vui-timing-info / vui-hrd-info / slices=1 / no-opt-qp-pps / no-opt-ref-list-length-pps / no-multi-pass-opt-rps / scenecut-bias=0.05 / no-opt-cu-delta-qp / no-aq-motion / no-hdr / no-hdr-opt / no-dhdr10-opt / no-idr-recovery-sei / analysis-reuse-level=5 / scale-factor=0 / refine-intra=0 / refine-inter=0 / refine-mv=0 / refine-ctu-distortion=0 / no-limit-sao / ctu-info=0 / no-lowpass-dct / refine-analysis-type=0 / copy-pic=1 / max-ausize-factor=1.0 / no-dynamic-refine / no-single-sei / no-hevc-aq / qp-adaptation-range=1.00
Default                                  : Yes
Forced                                   : No

Audio #1
ID                                       : 2
Format                                   : AC-3
Format/Info                              : Audio Coding 3
Codec ID                                 : A_AC3
Duration                                 : 1 h 37 min
Bit rate mode                            : Constant
Bit rate                                 : 384 kb/s
Channel(s)                               : 6 channels
Channel positions                        : Front: L C R, Side: L R, LFE
Sampling rate                            : 48.0 kHz
Frame rate                               : 31.250 FPS (1536 SPF)
Bit depth                                : 16 bits
Compression mode                         : Lossy
Stream size                              : 267 MiB (5%)
Title                                    : ПД - UkrDub.net
Language                                 : Ukrainian
Service kind                             : Complete Main
Default                                  : Yes
Forced                                   : Yes

Audio #2
ID                                       : 3
Format                                   : AC-3
Format/Info                              : Audio Coding 3
Codec ID                                 : A_AC3
Duration                                 : 1 h 37 min
Bit rate mode                            : Constant
Bit rate                                 : 192 kb/s
Channel(s)                               : 2 channels
Channel positions                        : Front: L R
Sampling rate                            : 48.0 kHz
Frame rate                               : 31.250 FPS (1536 SPF)
Bit depth                                : 16 bits
Compression mode                         : Lossy
Stream size                              : 133 MiB (2%)
Title                                    : БЗ - K1
Language                                 : Ukrainian
Service kind                             : Complete Main
Default                                  : No
Forced                                   : No

Audio #3
ID                                       : 4
Format                                   : AC-3
Format/Info                              : Audio Coding 3
Codec ID                                 : A_AC3
Duration                                 : 1 h 37 min
Bit rate mode                            : Constant
Bit rate                                 : 256 kb/s
Channel(s)                               : 2 channels
Channel positions                        : Front: L R
Sampling rate                            : 48.0 kHz
Frame rate                               : 31.250 FPS (1536 SPF)
Bit depth                                : 16 bits
Compression mode                         : Lossy
Stream size                              : 178 MiB (3%)
Title                                    : БЗ - Три Крапки
Language                                 : Ukrainian
Service kind                             : Complete Main
Default                                  : No
Forced                                   : No

Audio #4
ID                                       : 5
Format                                   : AC-3
Format/Info                              : Audio Coding 3
Codec ID                                 : A_AC3
Duration                                 : 1 h 37 min
Bit rate mode                            : Constant
Bit rate                                 : 192 kb/s
Channel(s)                               : 2 channels
Channel positions                        : Front: L R
Sampling rate                            : 48.0 kHz
Frame rate                               : 31.250 FPS (1536 SPF)
Bit depth                                : 16 bits
Compression mode                         : Lossy
Stream size                              : 133 MiB (2%)
Title                                    : Original
Language                                 : English
Service kind                             : Complete Main
Default                                  : No
Forced                                   : No

Text #1
ID                                       : 6
Format                                   : UTF-8
Codec ID                                 : S_TEXT/UTF8
Codec ID/Info                            : UTF-8 Plain Text
Duration                                 : 1 h 32 min
Bit rate                                 : 67 b/s
Count of elements                        : 809
Stream size                              : 45.9 KiB (0%)
Title                                    : Full
Language                                 : Ukrainian
Default                                  : Yes
Forced                                   : No

Text #2
ID                                       : 7
Format                                   : UTF-8
Codec ID                                 : S_TEXT/UTF8
Codec ID/Info                            : UTF-8 Plain Text
Duration                                 : 1 h 32 min
Bit rate                                 : 42 b/s
Count of elements                        : 884
Stream size                              : 28.7 KiB (0%)
Title                                    : Full
Language                                 : English
Default                                  : No
Forced                                   : No

Menu
00:00:00.000                             : en:00:00:00.000
00:05:41.967                             : en:00:05:41.967
00:11:05.164                             : en:00:11:05.164
00:18:00.955                             : en:00:18:00.955
00:22:58.836                             : en:00:22:58.836
00:28:47.976                             : en:00:28:47.976
00:34:35.907                             : en:00:34:35.907
00:42:52.987                             : en:00:42:52.987
00:47:28.012                             : en:00:47:28.012
00:54:35.939                             : en:00:54:35.939
01:01:55.211                             : en:01:01:55.211
01:07:38.221                             : en:01:07:38.221
01:13:15.182                             : en:01:13:15.182
01:16:49.939                             : en:01:16:49.939
01:22:32.656                             : en:01:22:32.656
01:30:40.143                             : en:01:30:40.143
Світлини





Джерело: &
Особиста оцінка: 10 - без зайвих вагань рекомендую всім!


Авторський реліз (завантажувати можна без реєстрації)
 Трекер:    Зареєстрований   

Завантажити / скачати фільм українською



відео для новачків



 Зареєстрований:   2019-03-23 00:56
 Розмір:   5.28 GB 
 Оцінка фільму:   9.5/10 (Голосів: 6)
   
Інші релізи
   Місяць 2112 / Moon (2009) AVC 2xUkr/Eng | sub Ukr/Eng Arsenfpu  6 / 0   1.88 GB   2018-05-22 00:36 
   Місяць 2112 / Moon (2009) 1080р PhilosophUA  6 / 0   7.85 GB   2013-02-10 03:11 
   Місяць 2112 / Moon (2009) 720р PhilosophUA  3 / 0   3.61 GB   2013-02-10 03:06 
Ваш часовий пояс: GMT + 2 Години

Нова тема   Відповісти