Екстаз / Climax (2018) 1080p H.265 Ukr/Fra | Sub Eng

Нові коментарі

Нова тема   Відповісти
Автор Повідомлення
-Star-Lord- 
VIP


З нами з: 09.08.18
Востаннє: 23.04.19
Повідомлень: 737

2019-03-23 00:52  
Екстаз / Climax (2018) 1080p H.265 Ukr/Fra | Sub Eng

Екстаз / Climax (2018) 1080p H.265 Ukr/Fra | Sub Eng


Жанр: драма, трилер
Країна: Франція
Кінокомпанія: Wild Bunch, Arte France Cinéma
Режисер: Гаспар Ное
Актори: Софія Бутелла, Кідді Смайл, Ромен Ґійєрмік, Сухейла Якуб, Леа Вламос, Клод-Еммануель Гаян-Малл, Жизелль Палмер, Тейлор Кастл, Теа Карла Шотт, Шерлін Темпл

Сюжет:
У всіх нас одне життя, і кожен сам вибирає, як його провести. Але воно, це життя – це справжня насолода, яка поступово відходить від нас. Від нашого народження до моменту, коли серце перестає битися, проходить дуже мало часу, хоча здається, що навпаки. В академії сучасного танцю випускний. Із цього приводу там зараз прощальна вечірка, яка зібрала справжніх любителів танцю. В один момент вечора всіх присутніх охопила справжня ейфорія. Насолода витає навколо та не дає нікому розслабитися ні на мить. Тільки танцюючи можна дати волю своїй енергії, перетворити її в мистецтво. Комусь ця вечірка принесе тільки екстаз, а хтось буде чекати настання ранку.

Тривалість: 01:36:29
Якість:

Відео:
кодек: H.265 (HEVC)
розмір кадру: 1920 x 808
бітрейт: 4 992 кб/с
бітова глибина: 10 біт
Увага! Перед завантаженням переконайтесь, що ваш пристрій відтворення (та/або ПЗ) підтримує H.265 (HEVC)

Аудіо # 1:
мова: українська
переклад: багатоголосий закадровий
кодек: AC-3 5.1
бітрейт: 384 кб/с

Аудіо # 2:
мова: французька
переклад: оригінал
кодек: AC-3 5.1
бітрейт: 448 кб/с

Субтитри # 1:
мова: англійська (Full),
тип: програмні (м'які)
формат: *.srt


Info
Код:
General
Unique ID                                : 103397433469131920589955358447418293499 (0x4DC99F0F6C7F77A79EEA5C39169D3CFB)
Complete name                            : F:\Video\Climax (2018) 1080p H.265 [UKR_FRE] [Hurtom].
Format                                   :
Format version                           : Version 4 / Version 2
File size                                : 3.93 GiB
Duration                                 : 1 h 36 min
Overall bit rate                         : 5 825 kb/s
Movie name                               : Climax (2018)
Encoded date                             : UTC 2019-03-20 10:13:23
Writing application                      : v20.0.0 ('I Am The Sun') 64-bit
Writing library                          : libebml v1.3.5 + v1.4.8
Cover                                    : Yes
Attachments                              : cover.jpg

Video
ID                                       : 1
Format                                   : HEVC
Format/Info                              : High Efficiency Video Coding
Format profile                           : Main [email protected]@Main
Codec ID                                 : V_MPEGH/ISO/HEVC
Duration                                 : 1 h 36 min
Bit rate                                 : 4 992 kb/s
Width                                    : 1 920 pixels
Height                                   : 808 pixels
Display aspect ratio                     : 2.40:1
Frame rate mode                          : Constant
Frame rate                               : 23.976 (24000/1001) FPS
Color space                              : YUV
Chroma subsampling                       : 4:2:0
Bit depth                                : 10 bits
Bits/(Pixel*Frame)                       : 0.134
Stream size                              : 3.36 GiB (86%)
Title                                    : Climax (2018)
Writing library                          : x265 2.9+14-3023bd8b05c0:[Windows][GCC 8.2.1][64 bit] 10bit
Encoding settings                        : cpuid=1111039 / frame-threads=3 / numa-pools=8 / wpp / no-pmode / no-pme / no-psnr / no-ssim / log-level=2 / input-csp=1 / input-res=1920x808 / interlace=0 / total-frames=138798 / level-idc=0 / high-tier=1 / uhd-bd=0 / ref=4 / no-allow-non-conformance / no-repeat-headers / annexb / no-aud / no-hrd / info / hash=0 / no-temporal-layers / open-gop / min-keyint=23 / keyint=250 / gop-lookahead=0 / bframes=4 / b-adapt=2 / b-pyramid / bframe-bias=0 / rc-lookahead=25 / lookahead-slices=4 / scenecut=40 / radl=0 / no-splice / no-intra-refresh / ctu=64 / min-cu-size=8 / rect / no-amp / max-tu-size=32 / tu-inter-depth=1 / tu-intra-depth=1 / limit-tu=0 / rdoq-level=2 / dynamic-rd=0.00 / no-ssim-rd / signhide / no-tskip / nr-intra=0 / nr-inter=0 / no-constrained-intra / strong-intra-smoothing / max-merge=3 / limit-refs=3 / limit-modes / me=3 / subme=3 / merange=57 / temporal-mvp / weightp / no-weightb / no-analyze-src-pics / deblock=0:0 / sao / no-sao-non-deblock / rd=4 / no-early-skip / rskip / no-fast-intra / no-tskip-fast / no-cu-lossless / no-b-intra / no-splitrd-skip / rdpenalty=0 / psy-rd=2.00 / psy-rdoq=1.00 / no-rd-refine / no-lossless / cbqpoffs=0 / crqpoffs=0 / rc=abr / bitrate=5000 / qcomp=0.60 / qpstep=4 / stats-write=0 / stats-read=2 / cplxblur=20.0 / qblur=0.5 / ipratio=1.40 / pbratio=1.30 / aq-mode=3 / aq-strength=1.00 / cutree / zone-count=0 / no-strict-cbr / qg-size=32 / no-rc-grain / qpmax=69 / qpmin=0 / no-const-vbv / sar=0 / overscan=0 / videoformat=5 / range=0 / colorprim=2 / transfer=2 / colormatrix=2 / chromaloc=0 / display-window=0 / max-cll=0,0 / min-luma=0 / max-luma=1023 / log2-max-poc-lsb=8 / vui-timing-info / vui-hrd-info / slices=1 / no-opt-qp-pps / no-opt-ref-list-length-pps / multi-pass-opt-rps / scenecut-bias=0.05 / no-opt-cu-delta-qp / aq-motion / no-hdr / no-hdr-opt / no-dhdr10-opt / no-idr-recovery-sei / analysis-reuse-level=5 / scale-factor=0 / refine-intra=0 / refine-inter=0 / refine-mv=0 / no-limit-sao / ctu-info=0 / no-lowpass-dct / refine-mv-type=0 / copy-pic=1 / max-ausize-factor=1.0 / no-dynamic-refine / no-single-sei
Default                                  : Yes
Forced                                   : No

Audio #1
ID                                       : 2
Format                                   : AC-3
Format/Info                              : Audio Coding 3
Codec ID                                 : A_AC3
Duration                                 : 1 h 36 min
Bit rate mode                            : Constant
Bit rate                                 : 384 kb/s
Channel(s)                               : 6 channels
Channel positions                        : Front: L C R, Side: L R, LFE
Sampling rate                            : 48.0 kHz
Frame rate                               : 31.250 FPS (1536 SPF)
Bit depth                                : 16 bits
Compression mode                         : Lossy
Stream size                              : 265 MiB (7%)
Title                                    : БЗ - iTunes - 5.1 @ 384 kbps
Language                                 : Ukrainian
Service kind                             : Complete Main
Default                                  : Yes
Forced                                   : Yes

Audio #2
ID                                       : 3
Format                                   : AC-3
Format/Info                              : Audio Coding 3
Codec ID                                 : A_AC3
Duration                                 : 1 h 36 min
Bit rate mode                            : Constant
Bit rate                                 : 448 kb/s
Channel(s)                               : 6 channels
Channel positions                        : Front: L C R, Side: L R, LFE
Sampling rate                            : 48.0 kHz
Frame rate                               : 31.250 FPS (1536 SPF)
Bit depth                                : 16 bits
Compression mode                         : Lossy
Stream size                              : 309 MiB (8%)
Title                                    : Original - 5.1 @ 448 kbps
Language                                 : French
Service kind                             : Complete Main
Default                                  : No
Forced                                   : No

Text
ID                                       : 4
Format                                   : UTF-8
Codec ID                                 : S_TEXT/UTF8
Codec ID/Info                            : UTF-8 Plain Text
Duration                                 : 1 h 32 min
Bit rate                                 : 28 b/s
Count of elements                        : 1073
Stream size                              : 19.4 KiB (0%)
Title                                    : Full
Language                                 : English
Default                                  : No
Forced                                   : No

Menu
00:00:00.000                             : en:00:00:00.000
00:09:34.783                             : en:00:09:34.783
00:15:17.708                             : en:00:15:17.708
00:23:33.621                             : en:00:23:33.621
00:31:16.416                             : en:00:31:16.416
00:37:39.299                             : en:00:37:39.299
00:47:18.419                             : en:00:47:18.419
00:54:03.198                             : en:00:54:03.198
01:04:59.354                             : en:01:04:59.354
01:11:01.966                             : en:01:11:01.966
01:20:35.622                             : en:01:20:35.622
01:30:17.037                             : en:01:30:17.037
Світлини





Джерело: &
Особиста оцінка: 0 - не дивився


 Трекер:    Зареєстрований   

Завантажити / скачати фільм українською



відео для новачків



 Зареєстрований:   2019-03-23 00:52
 Розмір:   3.93 GB 
 Оцінка фільму:   5.7/10 (Голосів: 3)
   
Інші релізи
   Екстаз / Climax (2018) AVC Ukr/Fre | Sub Eng 11FrYkT  26 / 0   1.8 GB   2019-03-20 10:38 
   Екстаз / Climax (2018) 720p Ukr/Fre | Sub Eng 11FrYkT  6 / 0   5.77 GB   2019-03-20 10:35 
   Екстаз / Climax (2018) antik_2008  18 / 0   1.42 GB   2019-03-20 01:26 
   Екстаз / Climax (2018) Remux 1080p Ukr/Fra | Sub Eng antik_2008  8 / 0   23.55 GB   2019-03-20 01:22 
   Екстаз / Climax (2018) 1080p Ukr/Fra | Sub Eng antik_2008  14 / 0   14.06 GB   2019-03-20 00:43 
Ваш часовий пояс: GMT + 2 Години

Нова тема   Відповісти