Кривавий діамант / Blood Diamond (2006) 1080p H.265 Ukr/Eng | Sub Ukr/Eng

Нові коментарі

Нова тема   Відповісти
Автор Повідомлення
-Star-Lord- 
VIP


З нами з: 09.08.18
Востаннє: 19.04.19
Повідомлень: 736

2019-03-23 00:50  
Кривавий діамант / Blood Diamond (2006) 1080p H.265 Ukr/Eng | Sub Ukr/Eng

Кривавий діамант / Blood Diamond (2006) 1080p H.265 Ukr/Eng | Sub Ukr/Eng


Жанр: трилер, драма, пригоди
Країна: Кінокомпанія: Warner Bros. Pictures, Virtual Studios, Spring Creek Productions, Bedford Falls Productions, Initial Entertainment Group (IEG)
Режисер: Актори:
Сюжет:
Дія фільму розгортається на тлі громадянської війни 1990-х у Сьєрра-Леоне.
Денні Арчер - досвідчений контрабандист, який займається вивозом діамантів із Сьєрра-Леоне до Європи. Однак одного разу йому не щастить, і він потрапляє за ґрати.
У в'язниці він знайомиться із негром-рибалкою Соломоном Венді, котрий розповів, що заховав на волі великий рожевий діамант.
Соломон обіцяє віддати коштовність контрабандисту в обмін на те, що він допоможе йому знайти його сім'ю.
У компанії з американською журналісткою Медді Бовен та рибалкою, Арчер вирушив на пошуки діаманту...

Тривалість: 02:23:21
Якість:
Відео:
кодек: H.265 (HEVC)
розмір кадру: 1920 x 798
бітрейт: 7 363 кб/с
бітова глибина: 10 біт
Увага! Перед завантаженням переконайтесь, що ваш пристрій відтворення (та/або ПЗ) підтримує H.265 (HEVC)

Аудіо # 1:
мова: українська
переклад: професійний дубльований
кодек: AC-3 5.1
бітрейт: 640 кб/с

Аудіо # 2:
мова: англійська
переклад: оригінал
кодек: 5.1
бітрейт: 1511 кб/с

Субтитри # 1:
мова: українська (Forced),
тип: програмні (м'які)
формат: *.srt

Субтитри # 2:
мова: українська (Full),
тип: програмні (м'які)
формат: *.srt

Субтитри # 3:
мова: англійська (Forced),
тип: програмні (м'які)
формат: *.srt

Субтитри # 4:
мова: англійська (Full),
тип: програмні (м'які)
формат: *.srt


Info
Код:
General
Unique ID                                : 164736375564518112840325584342917976341 (0x7BEF12659C47B67AAF858D716C2E1115)
Complete name                            : F:\Video\Blood Diamond (2006) 1080p H.265 [UKR_ENG] [Hurtom].
Format                                   :
Format version                           : Version 4 / Version 2
File size                                : 9.53 GiB
Duration                                 : 2 h 23 min
Overall bit rate                         : 9 514 kb/s
Movie name                               : Blood Diamond (2006)
Encoded date                             : UTC 2019-03-22 14:21:20
Writing application                      : v20.0.0 ('I Am The Sun') 64-bit
Writing library                          : libebml v1.3.5 + v1.4.8
Cover                                    : Yes
Attachments                              : Cover.jpg

Video
ID                                       : 1
Format                                   : HEVC
Format/Info                              : High Efficiency Video Coding
Format profile                           : Main [email protected]@High
Codec ID                                 : V_MPEGH/ISO/HEVC
Duration                                 : 2 h 23 min
Bit rate                                 : 7 363 kb/s
Width                                    : 1 920 pixels
Height                                   : 798 pixels
Display aspect ratio                     : 2.40:1
Frame rate mode                          : Constant
Frame rate                               : 23.976 (24000/1001) FPS
Color space                              : YUV
Chroma subsampling                       : 4:2:0
Bit depth                                : 10 bits
Bits/(Pixel*Frame)                       : 0.200
Stream size                              : 7.37 GiB (77%)
Title                                    : Blood Diamond (2006)
Writing library                          : x265 2.9+9-f74003e88622:[Windows][GCC 8.2.0][64 bit] 10bit
Encoding settings                        : cpuid=1049583 / frame-threads=5 / numa-pools=4 / wpp / no-pmode / no-pme / no-psnr / no-ssim / log-level=3 / input-csp=1 / input-res=1920x798 / interlace=0 / total-frames=0 / level-idc=41 / high-tier=1 / uhd-bd=0 / ref=5 / allow-non-conformance / no-repeat-headers / annexb / no-aud / no-hrd / info / hash=0 / no-temporal-layers / open-gop / min-keyint=24 / keyint=240 / gop-lookahead=0 / bframes=16 / b-adapt=2 / b-pyramid / bframe-bias=0 / rc-lookahead=40 / lookahead-slices=5 / scenecut=40 / radl=0 / no-intra-refresh / ctu=32 / min-cu-size=8 / rect / no-amp / max-tu-size=32 / tu-inter-depth=1 / tu-intra-depth=1 / limit-tu=0 / rdoq-level=0 / dynamic-rd=0.00 / no-ssim-rd / signhide / no-tskip / nr-intra=0 / nr-inter=0 / no-constrained-intra / no-strong-intra-smoothing / max-merge=5 / limit-refs=3 / no-limit-modes / me=3 / subme=7 / merange=57 / temporal-mvp / weightp / weightb / no-analyze-src-pics / deblock=-3:-3 / no-sao / no-sao-non-deblock / rd=4 / no-early-skip / no-rskip / no-fast-intra / no-tskip-fast / no-cu-lossless / no-b-intra / no-splitrd-skip / rdpenalty=0 / psy-rd=2.00 / psy-rdoq=0.00 / no-rd-refine / no-lossless / cbqpoffs=0 / crqpoffs=0 / rc=crf / crf=20.0 / qcomp=0.60 / qpstep=4 / stats-write=0 / stats-read=0 / vbv-maxrate=50000 / vbv-bufsize=50000 / vbv-init=0.9 / crf-max=0.0 / crf-min=0.0 / ipratio=1.40 / pbratio=1.30 / aq-mode=3 / aq-strength=1.00 / no-cutree / zone-count=0 / no-strict-cbr / qg-size=32 / no-rc-grain / qpmax=69 / qpmin=0 / no-const-vbv / sar=1 / overscan=0 / videoformat=5 / range=0 / colorprim=1 / transfer=1 / colormatrix=1 / chromaloc=0 / display-window=0 / max-cll=0,0 / min-luma=0 / max-luma=1023 / log2-max-poc-lsb=8 / vui-timing-info / vui-hrd-info / slices=1 / no-opt-qp-pps / no-opt-ref-list-length-pps / no-multi-pass-opt-rps / scenecut-bias=0.05 / no-opt-cu-delta-qp / no-aq-motion / no-hdr / no-hdr-opt / no-dhdr10-opt / no-idr-recovery-sei / analysis-reuse-level=5 / scale-factor=0 / refine-intra=0 / refine-inter=0 / refine-mv=0 / no-limit-sao / ctu-info=0 / no-lowpass-dct / refine-mv-type=0 / copy-pic=1 / max-ausize-factor=1.0 / no-dynamic-refine / no-single-sei
Language                                 : English
Default                                  : Yes
Forced                                   : No
Color range                              : Limited
Color primaries                          : BT.709
Transfer characteristics                 : BT.709
Matrix coefficients                      : BT.709

Audio #1
ID                                       : 2
Format                                   : AC-3
Format/Info                              : Audio Coding 3
Codec ID                                 : A_AC3
Duration                                 : 2 h 23 min
Bit rate mode                            : Constant
Bit rate                                 : 640 kb/s
Channel(s)                               : 6 channels
Channel positions                        : Front: L C R, Side: L R, LFE
Sampling rate                            : 48.0 kHz
Frame rate                               : 31.250 FPS (1536 SPF)
Bit depth                                : 16 bits
Compression mode                         : Lossy
Stream size                              : 655 MiB (7%)
Title                                    : ПД - DVD | 5.1 @ 640 kbps
Language                                 : Ukrainian
Service kind                             : Complete Main
Default                                  : Yes
Forced                                   : Yes

Audio #2
ID                                       : 3
Format                                   :
Format/Info                              : Digital Theater Systems
Codec ID                                 : A_DTS
Duration                                 : 2 h 23 min
Bit rate mode                            : Constant
Bit rate                                 : 1 510 kb/s
Channel(s)                               : 6 channels
Channel positions                        : Front: L C R, Side: L R, LFE
Sampling rate                            : 48.0 kHz
Frame rate                               : 93.750 FPS (512 SPF)
Bit depth                                : 24 bits
Compression mode                         : Lossy
Stream size                              : 1.51 GiB (16%)
Title                                    : Original | 5.1 @ 1536 kbps
Language                                 : English
Default                                  : No
Forced                                   : No

Text #1
ID                                       : 4
Format                                   : UTF-8
Codec ID                                 : S_TEXT/UTF8
Codec ID/Info                            : UTF-8 Plain Text
Duration                                 : 2 h 14 min
Bit rate                                 : 1 b/s
Count of elements                        : 21
Stream size                              : 1.40 KiB (0%)
Title                                    : Forced
Language                                 : Ukrainian
Default                                  : Yes
Forced                                   : Yes

Text #2
ID                                       : 5
Format                                   : UTF-8
Codec ID                                 : S_TEXT/UTF8
Codec ID/Info                            : UTF-8 Plain Text
Duration                                 : 2 h 22 min
Bit rate                                 : 58 b/s
Count of elements                        : 1443
Stream size                              : 61.4 KiB (0%)
Title                                    : Full
Language                                 : Ukrainian
Default                                  : No
Forced                                   : No

Text #3
ID                                       : 6
Format                                   : UTF-8
Codec ID                                 : S_TEXT/UTF8
Codec ID/Info                            : UTF-8 Plain Text
Duration                                 : 2 h 22 min
Bit rate                                 : 1 b/s
Count of elements                        : 54
Stream size                              : 1.79 KiB (0%)
Title                                    : Forced
Language                                 : English
Default                                  : No
Forced                                   : No

Text #4
ID                                       : 7
Format                                   : UTF-8
Codec ID                                 : S_TEXT/UTF8
Codec ID/Info                            : UTF-8 Plain Text
Duration                                 : 2 h 22 min
Bit rate                                 : 55 b/s
Count of elements                        : 1799
Stream size                              : 57.7 KiB (0%)
Title                                    : Full
Language                                 : English
Default                                  : No
Forced                                   : No

Menu
00:00:00.000                             : en:Caught in Revolution's Net
00:06:32.559                             : en:Conflict Zone Statistics
00:08:57.537                             : en:Danny Negotiates
00:14:38.211                             : en:Give It to Me
00:18:05.251                             : en:Hidden Stones
00:21:56.482                             : en:Meeting Maddy
00:27:35.988                             : en:Soldiers and Captives
00:30:43.175                             : en:Colored By Blood
00:34:48.086                             : en:Soldier of the Revolution
00:37:43.761                             : en:Get Over Yourself
00:41:20.812                             : en:Freetown Siege
00:47:08.659                             : en:Shooting to Kill
00:50:19.683                             : en:Using Each Other
00:53:58.235                             : en:Unhappy Reunion
00:57:38.622                             : en:His Only Chance
01:04:04.007                             : en:A Little Bang-Bang
01:08:51.461                             : en:Drive to Survive
01:11:17.773                             : en:Good Intentions
01:16:19.909                             : en:Painful History
01:21:18.540                             : en:Child Soldier's Target
01:24:27.229                             : en:Parting Company
01:29:51.720                             : en:After Skinning
01:34:16.985                             : en:The Master
01:37:39.187                             : en:Searching for Dia
01:43:13.020                             : en:A Father Forsaken
01:46:02.856                             : en:Kill Them All
01:50:56.984                             : en:Deadly Digsite
01:56:07.794                             : en:I Am Your Father
01:59:04.471                             : en:Take Your Boy Home
02:04:21.454                             : en:A Real Story Now
02:08:59.065                             : en:Solomon Negotiates
02:12:07.753                             : en:Third World's Voice; Coda
02:14:56.922                             : en:End Credits
Світлини





Джерело: &
Особиста оцінка: 0 - не дивився


 Трекер:    Зареєстрований   

Завантажити / скачати фільм українською



відео для новачків



 Зареєстрований:   2019-03-23 00:50
 Розмір:   9.53 GB 
 Оцінка фільму:   9.8/10 (Голосів: 4)
   
Ваш часовий пояс: GMT + 2 Години

Нова тема   Відповісти