Аризонська мрія / Arizona Dream (1993) Remux 1080p Ukr/Eng | Sub Ukr/Eng

Нові коментарі

Нова тема   Відповісти
Автор Повідомлення
Anonymous 







2019-03-22 23:45  
Аризонська мрія / Arizona Dream (1993) Remux 1080p Ukr/Eng | Sub Ukr/Eng

Аризонська мрія / Arizona Dream (1993) Remux 1080p Ukr/Eng | Sub Ukr/Eng


Жанр: фентезі, драма, мелодрама, комедія
Країна: США, Франція
Кінокомпанія: Canal+, Constellation, Hachette Première
Режисер: Емір Кустуріца
Актори: Джонні Деп, Джеррі Левіс, Фей Данавей, Лілі Тейлор, Вінсент Ґалло, Пауліна Порічкова, Майкл Джей Поллард, Емір Кустуріца

Сюжет:
Дядечко Лео звик домагатися свого. А хоче він, щоб племінник Аксель став боярином на його весіллі і працював у його фірмі з продажу «кадилаків». Аксель же нічого не хоче. Він вважає за краще проводити час в компанії своєї коханої, місцевої божевільної Елейн, і її падчерки Ґрейс, і разом з ними віддаватися мріям. Закохана Елейн мріє літати як птах. Знехтувана Грейс мріє перевтілитися в черепаху. Аксель мріє про засніжені простори Аляски, де мисливці-ескімоси ловлять стрілозубих палтусів. Мріє навіть дядечко Лео: побудувати б цілу гору з «кадилаків» і забратися б по ній на Місяць....

Тривалість: 02:20:23
Якість: Remux

Відео:
кодек: VC-1
розмір кадру: 1920 x 1080
бітрейт: 21 981 кб/с

Аудіо # 1:
мова: українська
переклад: багатоголосий закадровий
кодек: AC-3 2.0
бітрейт: 192 кб/с

Аудіо # 2:
мова: англійська
переклад: оригінал
кодек: -MA 2.0
бітрейт: 1 699 кб/с

Субтитри # 1:
мова: українська (Full),
тип: програмні (м'які)
формат: *.srt
джерело субтитрів: DVD, обробка субтитрів: ZtaZ, редагування і синхронізація: w2958l

Субтитри # 2:
мова: англійська (Full),
тип: програмні (м'які)
формат: *.srt


Info
Код:
General
Unique ID                                : 269762893039701345915066742638060083945 (0xCAF2717FF9310B8CB1D10B8A25FD9AE9)
Complete name                            : F:\Video\Arizona Dream (1993) Remux 1080p [UKR_ENG] [Hurtom].
Format                                   :
Format version                           : Version 4 / Version 2
File size                                : 23.4 GiB
Duration                                 : 2 h 20 min
Overall bit rate                         : 23.9 Mb/s
Movie name                               : Arizona Dream (1993)
Encoded date                             : UTC 2019-03-22 21:27:56
Writing application                      : v20.0.0 ('I Am The Sun') 64-bit
Writing library                          : libebml v1.3.5 + v1.4.8
Cover                                    : Yes
Attachments                              : Cover.jpg

Video
ID                                       : 1
Format                                   : VC-1
Format profile                           : [email protected]
Codec ID                                 : V_MS/VFW/FOURCC / WVC1
Codec ID/Hint                            : Microsoft
Duration                                 : 2 h 20 min
Bit rate                                 : 22.0 Mb/s
Width                                    : 1 920 pixels
Height                                   : 1 080 pixels
Display aspect ratio                     : 16:9
Frame rate mode                          : Constant
Frame rate                               : 23.976 (24000/1001) FPS
Color space                              : YUV
Chroma subsampling                       : 4:2:0
Bit depth                                : 8 bits
Scan type                                : Progressive
Compression mode                         : Lossy
Bits/(Pixel*Frame)                       : 0.442
Stream size                              : 21.6 GiB (92%)
Title                                    : Arizona Dream (1993)
Language                                 : English
Default                                  : Yes
Forced                                   : No

Audio #1
ID                                       : 2
Format                                   : AC-3
Format/Info                              : Audio Coding 3
Codec ID                                 : A_AC3
Duration                                 : 2 h 20 min
Bit rate mode                            : Constant
Bit rate                                 : 192 kb/s
Channel(s)                               : 2 channels
Channel positions                        : Front: L R
Sampling rate                            : 48.0 kHz
Frame rate                               : 31.250 FPS (1536 SPF)
Bit depth                                : 16 bits
Compression mode                         : Lossy
Stream size                              : 193 MiB (1%)
Title                                    : БЗ - NLO
Language                                 : Ukrainian
Service kind                             : Complete Main
Default                                  : Yes
Forced                                   : Yes

Audio #2
ID                                       : 3
Format                                   :
Format/Info                              : Digital Theater Systems
Format profile                           : MA / Core
Codec ID                                 : A_DTS
Duration                                 : 2 h 20 min
Bit rate mode                            : Variable / Constant
Bit rate                                 : 1 699 kb/s / 1 509 kb/s
Channel(s)                               : 2 channels
Channel positions                        : Front: L R
Sampling rate                            : 48.0 kHz
Frame rate                               : 93.750 FPS (512 SPF)
Bit depth                                : 16 bits
Compression mode                         : Lossless / Lossy
Stream size                              : 1.67 GiB (7%)
Title                                    : Original
Language                                 : English
Default                                  : No
Forced                                   : No

Text #1
ID                                       : 4
Format                                   : UTF-8
Codec ID                                 : S_TEXT/UTF8
Codec ID/Info                            : UTF-8 Plain Text
Duration                                 : 2 h 16 min
Bit rate                                 : 79 b/s
Count of elements                        : 1366
Stream size                              : 80.1 KiB (0%)
Title                                    : Full
Language                                 : Ukrainian
Default                                  : Yes
Forced                                   : No

Text #2
ID                                       : 5
Format                                   : UTF-8
Codec ID                                 : S_TEXT/UTF8
Codec ID/Info                            : UTF-8 Plain Text
Duration                                 : 2 h 9 min
Bit rate                                 : 48 b/s
Count of elements                        : 1181
Stream size                              : 46.3 KiB (0%)
Title                                    : Full
Language                                 : English
Default                                  : No
Forced                                   : No

Menu
00:00:00.000                             : en:00:00:00.000
00:08:55.118                             : en:00:08:55.118
00:15:10.243                             : en:00:15:10.243
00:21:13.022                             : en:00:21:13.022
00:25:52.718                             : en:00:25:52.718
00:37:39.632                             : en:00:37:39.632
00:46:14.188                             : en:00:46:14.188
00:55:24.238                             : en:00:55:24.238
01:06:09.132                             : en:01:06:09.132
01:12:07.073                             : en:01:12:07.073
01:20:52.181                             : en:01:20:52.181
01:26:49.371                             : en:01:26:49.371
01:31:23.103                             : en:01:31:23.103
01:38:56.472                             : en:01:38:56.472
01:46:04.650                             : en:01:46:04.650
01:54:43.502                             : en:01:54:43.502
02:05:01.911                             : en:02:05:01.911
02:12:01.747                             : en:02:12:01.747
Світлини





Джерело: &
Особиста оцінка: 0 - не дивився


Золотий реліз (завантажене не впливає на рейтинг)
 Трекер:    Зареєстрований   

Завантажити / скачати фільм українською



відео для новачків



 Зареєстрований:   2019-03-22 23:45
 Розмір:   23.41 GB 
 Оцінка фільму:   10/10 (Голосів: 2)
   
Ваш часовий пояс: GMT + 2 Години

Нова тема   Відповісти