Любов, смерть і роботи (Сезон 1, серії 1-3) / Love, Death & Robots (Season 1, episodes 1-3) (2019) 1080p Eng | Sub Ukr/Eng/Multi

Нові коментарі

Нова тема   Відповісти
Автор Повідомлення
Anonymous 







2019-03-21 15:04  
Любов, смерть і роботи (Сезон 1, серії 1-3) / Love, Death & Robots (Season 1, episodes 1-3) (2019) 1080p Eng | Sub Ukr/Eng/Multi



Жанр: анімація, жахи, фантастика, фентезі, комедія, бойовик, кримінальний
Країна: США



Кінокомпанія: Blur Studio, NetFlix
Автор: Тім Міллер / Tim Miller
Актори (озвучення): Скотт Вайт, Нолан Норт, Меттью Янг Кінг, Майкл Беняер, Джош Бренер, Еллі Кондрон, Генрі Даутвейт, Грехем Гамільтон, Аарон Хімельштейн, Стефан Капічіч, Ніл Каплан, Моріс ЛаМарш, Кевін Майкл Річардсон, Ілейн Тан, Кірк Торнтон, Мері Елізабет Вінстед та інші.

Сюжет:
Збірка короткометражних анімаційних фільмів фантастичної тематики.

Проект "Любов, смерть і роботи" - це окремий вид мистецтва. Серіал є чудовою сумішшю історій, представлених в абсолютно різних жанрах. Тут вас чекає і зустріч з класичними елементами наукової фантастики, незвичайним гумором, дивним фентезійним світом і жахом, що по-справжньому пробирає до мурашок. Кожен з персонажів у проекті буде здаватися вам дивним, як мінімум. Тут відбувається справжній винос мозку, до якого неможливо звикнути чи підготуватися. Якщо ви готові дивитися історію, де в центрі уваги опиняються молокопродукти, що несподівано ожили після загадкових обставин, божевільні роботи, які прагнуть захопити світ і солдати, здатні обертатися на тварин, то ласкаво просимо до перегляду! Перед вами приголомшлива історія, яка обов'язково припаде до душі всім шанувальникам безумства та абсурду!
Офіційний оригінальний трейлер (18+):


Віковий телевізійний рейтинг у США: TV-MA - тільки для дорослих
Вікова категорія: 18+

Тривалість: 1 серія: 11÷17 хв. (цілком серій: 1-3 з 18)
Перелік серій:
01. Sonnie's Edge
02. Three Robots
03. The Witness
04. Suits
05. Sucker of Souls
06. When The Yogurt Took Over
07. Beyond the Aquila Rift
08. Good Hunting
09. The Dump
10. Shape-Shifters
11. Helping Hand
12. Fish Night
13. Lucky 13
14. Zima Blue
15. Blind Spot
16. Ice Age
17. Alternate Histories
18. Secret War
Якість: 1080p
Відео:
кодек:
розмір кадру: 1920х1080
бітрейт: 4020 ÷ 6810 кб/с

Аудіо:
мова: англійська
переклад: оригінал
кодек: 5.1
бітрейт: 384 кб/с

Субтитри # 1:
мова: українська
тип: програмні (м'які)
формат: *.srt
переклад: любительський, спільнота SubAutumn
коригування: igor911

Субтитри # 2-19:
мова: англійська, іспанська (європейська), польська, французька, турецька, португальська (бразильська), португальська, німецька, данська, італійська, іспанська, шведська, індонезійська, фінська, грецька, норвезька, угорська, нідерландська
тип: програмні (м'які)
формат: *.srt
Info
Код:

Complete name               : S01E01.Sonnies.Edge..1080p.[Hurtom].
Format                      :
Format version              : Version 4
File size                   : 874 MiB
Duration                    : 17 min 14 s
Overall bit rate mode       : Variable
Overall bit rate            : 7 086 kb/s
Movie name                  : s01e01Любов, смерть і роботи / Love, Death & Robots (2019) [Eng sub.Ukr,Eng,Multi] 1080p [Hurtom]
Encoded date                : UTC 2019-03-21 13:48:49
Writing application         : v32.0.0 ('Astral Progressions') 64-bit
Writing library             : libebml v1.3.7 + v1.5.0
Cover                       : Yes
Attachments                 : cover.jpg

Video
ID                          : 1
Format                      : AVC
Format/Info                 : Advanced Video Codec
Format profile              : [email protected]
Format settings             : CABAC / 3 Ref Frames
Format settings, CABAC      : Yes
Format settings, ReFrames   : 3 frames
Codec ID                    : V_MPEG4/ISO/AVC
Duration                    : 17 min 14 s
Bit rate mode               : Variable
Bit rate                    : 6 698 kb/s
Nominal bit rate            : 7 150 kb/s
Maximum bit rate            : 10.7 Mb/s
Width                       : 1 920 pixels
Height                      : 1 080 pixels
Display aspect ratio        : 16:9
Frame rate mode             : Constant
Frame rate                  : 24.000 FPS
Color space                 : YUV
Chroma subsampling          : 4:2:0
Bit depth                   : 8 bits
Scan type                   : Progressive
Bits/(Pixel*Frame)          : 0.135
Stream size                 : 826 MiB (95%)
Title                       : s01e01Любов, смерть і роботи / Love, Death & Robots (2019) 1080p
Writing library             : core 148 r2715 7e75228
Encoding settings           : cabac=1 / ref=3 / deblock=1:0:0 / analyse=0x1:0x111 / me=umh / subme=10 / psy=1 / psy_rd=1.00:0.00 / mixed_ref=1 / me_range=24 / chroma_me=1 / trellis=2 / 8x8dct=0 / cqm=0 / deadzone=21,11 / fast_pskip=1 / chroma_qp_offset=-2 / threads=8 / lookahead_threads=1 / sliced_threads=0 / nr=0 / decimate=1 / interlaced=0 / bluray_compat=0 / stitchable=1 / constrained_intra=0 / bframes=2 / b_pyramid=0 / b_adapt=2 / b_bias=0 / direct=3 / weightb=1 / open_gop=0 / weightp=2 / keyint=48 / keyint_min=25 / scenecut=0 / intra_refresh=0 / rc_lookahead=48 / rc=2pass / mbtree=1 / bitrate=7150 / ratetol=1.0 / qcomp=0.50 / qpmin=6 / qpmax=51 / qpstep=4 / cplxblur=20.0 / qblur=0.5 / vbv_maxrate=10725 / vbv_bufsize=14300 / nal_hrd=vbr / filler=0 / ip_ratio=1.40 / aq=1:1.00
Language                    : English
Default                     : Yes
Forced                      : No

Audio
ID                          : 2
Format                      : AC-3
Format/Info                 : Audio Coding 3
Commercial name             : Dolby Digital
Codec ID                    : A_AC3
Duration                    : 17 min 14 s
Bit rate mode               : Constant
Bit rate                    : 384 kb/s
Channel(s)                  : 6 channels
Channel layout              : L R C LFE Ls Rs
Sampling rate               : 48.0 kHz
Frame rate                  : 31.250 FPS (1536 SPF)
Bit depth                   : 16 bits
Compression mode            : Lossy
Stream size                 : 47.4 MiB (5%)
Language                    : English
Service kind                : Complete Main
Default                     : Yes
Forced                      : No

Text #1
ID                          : 3
Format                      : UTF-8
Codec ID                    : S_TEXT/UTF8
Codec ID/Info               : UTF-8 Plain Text
Duration                    : 15 min 29 s
Bit rate                    : 66 b/s
Count of elements           : 157
Stream size                 : 7.51 KiB (0%)
Title                       : Ukr full [SubAutumn]
Language                    : Ukrainian
Default                     : Yes
Forced                      : Yes

Text #2
ID                          : 4
Format                      : UTF-8
Codec ID                    : S_TEXT/UTF8
Codec ID/Info               : UTF-8 Plain Text
Duration                    : 14 min 57 s
Bit rate                    : 48 b/s
Count of elements           : 213
Stream size                 : 5.34 KiB (0%)
Title                       : English
Language                    : English
Default                     : No
Forced                      : No

Text #3
ID                          : 5
Format                      : UTF-8
Codec ID                    : S_TEXT/UTF8
Codec ID/Info               : UTF-8 Plain Text
Duration                    : 16 min 30 s
Bit rate                    : 34 b/s
Count of elements           : 180
Stream size                 : 4.17 KiB (0%)
Title                       : European Spanish
Language                    : Spanish
Default                     : No
Forced                      : No

Text #4
ID                          : 6
Format                      : UTF-8
Codec ID                    : S_TEXT/UTF8
Codec ID/Info               : UTF-8 Plain Text
Duration                    : 16 min 31 s
Bit rate                    : 34 b/s
Count of elements           : 158
Stream size                 : 4.18 KiB (0%)
Title                       : Polish
Language                    : Polish
Default                     : No
Forced                      : No

Text #5
ID                          : 7
Format                      : UTF-8
Codec ID                    : S_TEXT/UTF8
Codec ID/Info               : UTF-8 Plain Text
Duration                    : 16 min 31 s
Bit rate                    : 38 b/s
Count of elements           : 160
Stream size                 : 4.66 KiB (0%)
Title                       : French
Language                    : French
Default                     : No
Forced                      : No

Text #6
ID                          : 8
Format                      : UTF-8
Codec ID                    : S_TEXT/UTF8
Codec ID/Info               : UTF-8 Plain Text
Duration                    : 16 min 31 s
Bit rate                    : 35 b/s
Count of elements           : 157
Stream size                 : 4.32 KiB (0%)
Title                       : Turkish
Language                    : Turkish
Default                     : No
Forced                      : No

Text #7
ID                          : 9
Format                      : UTF-8
Codec ID                    : S_TEXT/UTF8
Codec ID/Info               : UTF-8 Plain Text
Duration                    : 16 min 31 s
Bit rate                    : 36 b/s
Count of elements           : 164
Stream size                 : 4.38 KiB (0%)
Title                       : Brazilian Portuguese
Language                    : Portuguese
Default                     : No
Forced                      : No

Text #8
ID                          : 10
Format                      : UTF-8
Codec ID                    : S_TEXT/UTF8
Codec ID/Info               : UTF-8 Plain Text
Duration                    : 16 min 31 s
Bit rate                    : 34 b/s
Count of elements           : 159
Stream size                 : 4.21 KiB (0%)
Title                       : Portuguese
Language                    : Portuguese
Default                     : No
Forced                      : No

Text #9
ID                          : 11
Format                      : UTF-8
Codec ID                    : S_TEXT/UTF8
Codec ID/Info               : UTF-8 Plain Text
Duration                    : 16 min 31 s
Bit rate                    : 35 b/s
Count of elements           : 165
Stream size                 : 4.30 KiB (0%)
Title                       : German
Language                    : German
Default                     : No
Forced                      : No

Text #10
ID                          : 12
Format                      : UTF-8
Codec ID                    : S_TEXT/UTF8
Codec ID/Info               : UTF-8 Plain Text
Duration                    : 16 min 31 s
Bit rate                    : 36 b/s
Count of elements           : 162
Stream size                 : 4.42 KiB (0%)
Title                       : Danish
Language                    : Danish
Default                     : No
Forced                      : No

Text #11
ID                          : 13
Format                      : UTF-8
Codec ID                    : S_TEXT/UTF8
Codec ID/Info               : UTF-8 Plain Text
Duration                    : 16 min 31 s
Bit rate                    : 36 b/s
Count of elements           : 161
Stream size                 : 4.42 KiB (0%)
Title                       : Italian
Language                    : Italian
Default                     : No
Forced                      : No

Text #12
ID                          : 14
Format                      : UTF-8
Codec ID                    : S_TEXT/UTF8
Codec ID/Info               : UTF-8 Plain Text
Duration                    : 16 min 31 s
Bit rate                    : 34 b/s
Count of elements           : 166
Stream size                 : 4.20 KiB (0%)
Title                       : Spanish
Language                    : Spanish
Default                     : No
Forced                      : No

Text #13
ID                          : 15
Format                      : UTF-8
Codec ID                    : S_TEXT/UTF8
Codec ID/Info               : UTF-8 Plain Text
Duration                    : 16 min 31 s
Bit rate                    : 33 b/s
Count of elements           : 148
Stream size                 : 4.03 KiB (0%)
Title                       : Swedish
Language                    : Swedish
Default                     : No
Forced                      : No

Text #14
ID                          : 16
Format                      : UTF-8
Codec ID                    : S_TEXT/UTF8
Codec ID/Info               : UTF-8 Plain Text
Duration                    : 16 min 31 s
Bit rate                    : 34 b/s
Count of elements           : 162
Stream size                 : 4.17 KiB (0%)
Title                       : Indonesian
Language                    : Indonesian
Default                     : No
Forced                      : No

Text #15
ID                          : 17
Format                      : UTF-8
Codec ID                    : S_TEXT/UTF8
Codec ID/Info               : UTF-8 Plain Text
Duration                    : 16 min 31 s
Bit rate                    : 34 b/s
Count of elements           : 158
Stream size                 : 4.16 KiB (0%)
Title                       : Finnish
Language                    : Finnish
Default                     : No
Forced                      : No

Text #16
ID                          : 18
Format                      : UTF-8
Codec ID                    : S_TEXT/UTF8
Codec ID/Info               : UTF-8 Plain Text
Duration                    : 16 min 31 s
Bit rate                    : 62 b/s
Count of elements           : 162
Stream size                 : 7.61 KiB (0%)
Title                       : Greek
Language                    : Greek
Default                     : No
Forced                      : No

Text #17
ID                          : 19
Format                      : UTF-8
Codec ID                    : S_TEXT/UTF8
Codec ID/Info               : UTF-8 Plain Text
Duration                    : 16 min 31 s
Bit rate                    : 30 b/s
Count of elements           : 159
Stream size                 : 3.69 KiB (0%)
Title                       : Norwegian
Language                    : Norwegian
Default                     : No
Forced                      : No

Text #18
ID                          : 20
Format                      : UTF-8
Codec ID                    : S_TEXT/UTF8
Codec ID/Info               : UTF-8 Plain Text
Duration                    : 16 min 31 s
Bit rate                    : 34 b/s
Count of elements           : 160
Stream size                 : 4.13 KiB (0%)
Title                       : Hungarian
Language                    : Hungarian
Default                     : No
Forced                      : No

Text #19
ID                          : 21
Format                      : UTF-8
Codec ID                    : S_TEXT/UTF8
Codec ID/Info               : UTF-8 Plain Text
Duration                    : 15 min 35 s
Bit rate                    : 34 b/s
Count of elements           : 155
Stream size                 : 3.94 KiB (0%)
Title                       : Dutch
Language                    : Dutch
Default                     : No
Forced                      : No


Джерело: &


Золотий реліз (завантажене не впливає на рейтинг)
 Трекер:    Зареєстрований   

Завантажити / скачати мультфільм українською



відео для новачків



 Зареєстрований:   2019-03-24 20:16
 Розмір:   1.79 GB 
 Оцінка мультсеріалу:   9.9/10 (Голосів: 24)
   
-Star-Lord- 
VIP


З нами з: 09.08.18
Востаннє: 15.12.19
Повідомлень: 1358

2019-03-21 17:26  
Крутяк =)
bot 
робот


З нами з: 30.09.07
Востаннє: 26.05.05
Повідомлень: 22659

2019-03-21 21:11  
Тему перенесено з Анонси релізів до форуму Мультсеріали


igor911

kordivka 
Новенький


З нами з: 02.01.19
Востаннє: 27.07.19
Повідомлень: 4

2019-03-21 21:54  
17 про паралельну історію :-)))
Serpanok 
Відео Гуртом - підтримка та поширення
Відео Гуртом - підтримка та поширення


З нами з: 14.01.08
Востаннє: 12.12.19
Повідомлень: 123

2019-03-22 11:18  
Серіал суперовий а деякі серії взагалі бомбезні. Сподіваюсь на продовження.
З того що найбілье спдобалось:
Three Robots - найвеселіший епізод
The Witness - ноланівщина якась Happy
Blindspot - Mad Max з роботами
Good Hunting - казкова історія

Рекомендую!

d1monster 
Свій


З нами з: 05.12.09
Востаннє: 13.12.19
Повідомлень: 94

2019-03-22 12:50  
Озвучки не планується, випадково?
Anonymous 







2019-03-22 15:15  
d1monster написано:
Озвучки не планується, випадково?

Струґачка збирає гроші на озвучення. 2000 грн. - перша серія або 27000 грн. якщо звучити всі 18 серій одразу оптом.

mult_77 
Новенький


З нами з: 20.04.16
Востаннє: 14.12.19
Повідомлень: 6

2019-03-23 22:18  
ну так а чому одна лише серія? а решта де/коли?
Anonymous 







2019-03-24 20:17  
+ 2а та 3я серії
Andrey-2005 
Частий відвідувач


З нами з: 13.05.16
Востаннє: 15.12.19
Повідомлень: 43

2019-03-24 23:11  
Підкажіть, там всі серії 18+, чи окремі (з роботами) підійдуть для перегляду з дітьми?
Anonymous 







2019-03-24 23:24  
"Три роботи" - можна з дітьми 12+
Ваш часовий пояс: GMT + 2 Години

Нова тема   Відповісти