Завантажити та скачати торренти українською


Er. J. Orchestra - On The Hill Again (Special CD+DVD edition) (2006) [FLAC] | Jazz / Ethno

Нові коментарі

Нова тема   Відповісти
Останній раз роздавалося Myfordownloads (2016-10-05)
Автор Повідомлення
jeether 
Новенький


З нами з: 03.01.10
Востаннє: 02.11.16
Повідомлень: 8

2010-01-05 22:38  
Er. J. Orchestra - On The Hill Again (Special CD+DVD edition) (2006) [FLAC] | Jazz / Ethno



Стиль: Acoustic Jazz Ethno
Країна, місто: Україна, Київ
Сайти: Офіційний сайт
Видавець: Караван CD
Виконавці:
Олексій Александров – фортепіано, перкусія, бубон
Віктор Крисько – скрипка, альт
Олекса Кабанов – гуслі, колісні ліри
Григорій Неміровський – фортепіано, флюгельгорн, труби, меллофон
Oakman – перкусія, барабани, голос, акустична гітара, вокал
Анджей Поздін – акустична гітара
Андрій Чугуєвець – домра, баян
Володимир Сороченко – бас
Олександр Умрілов – акустична гітара
Валерій Кошман – електрогітара
Олександр Блінов – вібрафон
Олег "Доктор" Кобцев – перкусія, шейкер

Пісні:
Видання складається з одного аудіодиску CD та одного DVD з додатковим матеріалом: відеокліпами, інтерв'ю та фотографіями учасників групи.
    On the Hill Again (full CD version: remastered):

    1. Dawn Improvisation
    2. Ayo Valley
    3. Towards a Dream
    4. Castle of Elves
    5. Jasper Garden
    6. Tea Ceremony
    7. Cave of Delusion improvisation
    8. Knightmare
    9. Pilgrims
    10. On the Hill Again

    On the Hill Again Years (DVD):

    1. Fanteas Magor (Magor the Magician)
    2. Jasper Garden/ Tea Ceremony
    3. Pilgrims
    4. On the Hill Again credits
    +Blissful Island
    +The Third Angel
    +Interviews
    +Photo Gallery


Технічні характеристики:
Аудіо (CD)
Аудіодиск «On the Hill Again (full CD version: remastered)»:

Тривалість: 00:53:30
Мова: англійська (10)
Аудіо-кодек: FLAC
Бітрейт: ~900 кб/с
Джерело: CD
EAC log

Exact Audio Copy V0.99 prebeta 5 from 4. May 2009

EAC extraction logfile from 5. January 2010, 19:05

Er. J. Orchestra / On The Hill Again

Used drive : HL-DT-STDVDRAM GSA-H12N Adapter: 4 ID: 0

Read mode : Secure
Utilize accurate stream : Yes
Defeat audio cache : Yes
Make use of C2 pointers : No

Read offset correction : 667
Overread into Lead-In and Lead-Out : No
Fill up missing offset samples with silence : Yes
Delete leading and trailing silent blocks : No
Null samples used in CRC calculations : Yes
Used interface : Native Win32 interface for Win NT & 2000
Gap handling : Appended to previous track

Used output format : User Defined Encoder
Selected bitrate : 1024 kBit/s
Quality : High
Add ID3 tag : No
Command line compressor : C:\Program Files\Exact Audio Copy\FLAC\FLAC.EXE
Additional command line options : -V -8 -T "artist=%a" -T "title=%t" -T "album=%g" -T "date=%y" -T "tracknumber=%n" -T "genre=%m" %s

TOC of the extracted CD

Track | Start | Length | Start sector | End sector
---------------------------------------------------------
1 | 0:00.00 | 2:06.18 | 0 | 9467
2 | 2:06.18 | 7:07.57 | 9468 | 41549
3 | 9:14.00 | 1:25.30 | 41550 | 47954
4 | 10:39.30 | 7:28.34 | 47955 | 81588
5 | 18:07.64 | 1:51.64 | 81589 | 89977
6 | 19:59.53 | 9:02.60 | 89978 | 130687
7 | 29:02.38 | 3:18.70 | 130688 | 145607
8 | 32:21.33 | 4:54.42 | 145608 | 167699
9 | 37:16.00 | 8:36.53 | 167700 | 206452
10 | 45:52.53 | 7:38.07 | 206453 | 240809

Track 1

Filename C:\Users\jeether\Desktop\erjorchestra\01. Dawn Improvisation.wav

Pre-gap length 0:00:02.00

Peak level 100.0 %
Track quality 100.0 %
Test CRC 1ADD943C
Copy CRC 1ADD943C
Track not present in AccurateRip database
Copy OK

Track 2

Filename C:\Users\jeether\Desktop\erjorchestra\02. AyoValley.wav

Peak level 100.0 %
Track quality 100.0 %
Test CRC 5C8A6148
Copy CRC 5C8A6148
Track not present in AccurateRip database
Copy OK

Track 3

Filename C:\Users\jeether\Desktop\erjorchestra\03. Towards A Dream.wav

Peak level 98.6 %
Track quality 100.0 %
Test CRC 7FEC2D29
Copy CRC 7FEC2D29
Track not present in AccurateRip database
Copy OK

Track 4

Filename C:\Users\jeether\Desktop\erjorchestra\04. Castle Of Elves.wav

Peak level 100.0 %
Track quality 100.0 %
Test CRC 566EB656
Copy CRC 566EB656
Track not present in AccurateRip database
Copy OK

Track 5

Filename C:\Users\jeether\Desktop\erjorchestra\05. Jasper Garden.wav

Peak level 92.5 %
Track quality 100.0 %
Test CRC 69D217BA
Copy CRC 69D217BA
Track not present in AccurateRip database
Copy OK

Track 6

Filename C:\Users\jeether\Desktop\erjorchestra\06. Tea Ceremony.wav

Peak level 100.0 %
Track quality 100.0 %
Test CRC 45165785
Copy CRC 45165785
Track not present in AccurateRip database
Copy OK

Track 7

Filename C:\Users\jeether\Desktop\erjorchestra\07. Cave Of Delusion Improvisation.wav

Peak level 94.4 %
Track quality 100.0 %
Test CRC C498450B
Copy CRC C498450B
Track not present in AccurateRip database
Copy OK

Track 8

Filename C:\Users\jeether\Desktop\erjorchestra\08. Knightmare.wav

Peak level 100.0 %
Track quality 100.0 %
Test CRC 6C7FA09B
Copy CRC 6C7FA09B
Track not present in AccurateRip database
Copy OK

Track 9

Filename C:\Users\jeether\Desktop\erjorchestra\09. Pilgrims.wav

Peak level 98.6 %
Track quality 100.0 %
Test CRC 2D96D8F4
Copy CRC 2D96D8F4
Track not present in AccurateRip database
Copy OK

Track 10

Filename C:\Users\jeether\Desktop\erjorchestra\10. On The Hill Again.wav

Peak level 90.0 %
Track quality 100.0 %
Test CRC 8F933457
Copy CRC 8F933457
Track not present in AccurateRip database
Copy OK

None of the tracks are present in the AccurateRip database

No errors occurred

End of status report
Відео (DVD)
DVD диск «On the Hill Again Years»:

Тривалість: 01:15:53
Якість: DVD-5
кодек: MPEG-2 DVD
розмір кадру: 720 x 576
бітрейт: ~9620 кб/с
мова: російська (інтерв'ю) англійська (меню диску та субтитри)
субтитри: англійські, вбудовані
Аудіо:
кодек: 2.0
бітрейт: 256 кб/с
Скріншоти
Додаткова інформація:
Рецензія від Антона Йожик Лейба
Це справді коштовне видання – і справа, звісно ж, не тільки в ціні. Не знаю, як там щодо всіх меломанів світу – справа смаку, звісно. Але для кожного, хто цінує творчість Er. J. Orchestra це – радісна новина, дорогоцінний подарунок. Якщо взяти CD, тут вперше представлено повну версію альбому "On the Hill Again" – а це на три композиції більше, ніж у виданні 2002 року. Погодьтеся, у випадку, коли чи не кожну п’єсу можна справедливо вважати перлиною, додаток у вигляді трьох – це здорово. Що ж стосується DVD – на ньому теж, безумовно, вистачає приємних сюрпризів. Тут немає відеокліпів у звичному розумінні цього слова. Перші чотири композиції – це, скоріше, музично-документальна п’єса, спроба візуалізації не самої навіть музики, а відчуттів, які стоять за нею. Те ж стосується і фільму "Blissful Island" (відправною точкою для нього стала проза Олексія Олександрова). Три останніх розділи – фотографії, інтерв’ю, слайди, фрагменти концертних виступів. Іншими словами – справжні раритети, яких більше не знайдеш ніде. Але повернімося до музики. Безумовно, Er. J. Orchestra сьогодні є одним з найбільш цікавих українських проектів у царині етно-ф’южн. І не тільки українських. Власне, ця музика настільки органічно вплетена у світове звукове полотно – неможливо обмежити її якимись кордонами, географічними чи стильовими тощо. Майте на увазі, якщо Ви знаєте тільки альбом "Gabrielius", то тут це знання не допоможе. "On the Hill Again" не менш цікавий, але – інший у тому, що стосується способів формування простору. Він ніби збирає зовсім різні потоки навколо центру – але не має того центру всередині себе. Центр – всередині тебе, слухаче. Тріпотить у повітрі летюча риба, і сонце виблискує на її плавниках, і краплі солоні упали на тінь її, і все це так швидко... осколки твого дзеркала розбіглися по всім світі – лише деякі стали полум’ям жовтих свічок, а решта – по кутах цеї кулі сховалися... не бійся. На тебе чекають. Тут.


P.S. від релізера: це неймовірно красива музика, яку дійсно важко втиснути в будь-які жанрові визначення. Моє особисте велике музичне відкриття, яким з радістю ділюсь. Тим не менш, кумедні червоні літери нижче не втрачають свого значення:

Якщо Ви справді бажаєте підтримати українське - після прослуховування придбайте ліцензійний диск.
Підтримаймо вітчизняних виконавців! Вони цього заслуговують.


Срібний реліз (на рейтинг впливає 50% завантаженого)
 Трекер:    Зареєстрований   

Завантажити / скачати українську музику



відео для новачків



 Зареєстрований:   2010-01-05 22:38
 Розмір:   4.62 GB 
 Оцінка музики:   10/10 (Голосів: 13)
   
jinotot 
Почесний оцифрувальник літератури


З нами з: 28.01.09
Востаннє: 04.12.16
Повідомлень: 3235

2010-01-06 12:48  
jeether, дуже гарне оформлення! Дякую щиро! І знову цікава вітчизняна музика, про існування якої я до цього часу не здогадувався Happy За це також безмежно вдячний!
Кілька маленьких зауважень: підправ, будь ласка, у графі "Виконавці" назви інструментів і напиши їх українською мовою. І в тех. даних відео слід дописати, що є субтитри, зазначити мову субтитрів, формат і тип -- вбудовані (жорсткі) чи програмні (м'які).
Іще раз велике спасибі за реліз!

nahema 
Частий відвідувач


З нами з: 05.01.10
Востаннє: 27.11.16
Повідомлень: 40

2010-01-06 17:15  
Нарешті з'явився сід Rolleyes (4)
Хочу швидше послухати Tongue up (1)

jeether 
Новенький


З нами з: 03.01.10
Востаннє: 02.11.16
Повідомлень: 8

2010-01-06 17:52  
jinotot, дякую за зауваження. Виправився як зміг.

Приємного всім прослуховування.

Lev 
VIP


З нами з: 14.10.09
Востаннє: 09.12.16
Повідомлень: 1819

2010-04-14 03:22  
дайте докачати, будь ласка - вже більшість релізу потягнув
jeether 
Новенький


З нами з: 03.01.10
Востаннє: 02.11.16
Повідомлень: 8

2010-04-14 11:44  
Сідирую кожного вечора. Чомусь у вас швидкість дуже низька.
Lev 
VIP


З нами з: 14.10.09
Востаннє: 09.12.16
Повідомлень: 1819

2010-04-15 18:27  
ага, то такий провайдер - я б і роздавав значно більше, якби були технічні можливості відповідні

а питав, бо там пару днів вас шось ніби не було Happy

nelwizard 
Новенький


З нами з: 15.07.10
Востаннє: 17.07.10
Повідомлень: 1

2010-07-15 17:14  
Привіт друзі, привіт з Бразилії;

відмінний пост, відмінний сайт, я дуже радий бути частиною цієї спільноти та поділитися чимось так добре, як музика!

Мир і любов для всіх!

plazmatix 
Свій


З нами з: 14.11.09
Востаннє: 30.11.16
Повідомлень: 71

2014-02-10 23:16  
Роздайте!
Ваш часовий пояс: GMT + 2 Години

Нова тема   Відповісти