Завантажити та скачати торренти українською


Після Заходу Сонця / After the Sunset (2004) 720p Ukr/Eng | Sub Ukr

Нові коментарі

Нова тема   Відповісти
Автор Повідомлення
prodig 
Поважний учасник


З нами з: 06.02.09
Востаннє: 04.10.13
Повідомлень: 206

2010-01-05 01:02  
Після Заходу Сонця / After the Sunset (2004) 720p Ukr/Eng | Sub Ukr



Жанр: детектив, афера, комедія
Країна: США

Кіностудія / кінокомпанія: New Line Cinema
Режисер: Бретт Ретнер
Актори: Пірс Броснан, Сальма Хаєк, Вуді Харрельсон, Дон Чідл, Наомі Харріс, Кріс Пенн, Трой Гаріті, Мікелті Вільямсон, Ліза Торнхілл, Джефф Гарлін

Сюжет:
Зав'язавши з кримінальним минулим, Мак Брадетт (Пірс Броснан), професійний злодій і шахрай, тепер насолоджується життям на райському острівці десь на Карибах, у компанії своєї подруги-напарниці (Сальма Хайєк). Але їх безтурботному існуванню не судилося тривати довго - один зі старих знайомих Брадетта, ганялися за ним свого часу агент ФБР (Вудді Харельсон), звертається до нього з пропозицією провернути одну привабливу справу. І тепер перед кожним з учасників цієї афери стоїть мета - не бути обіграні своїми напарниками і вийти зі справи переможцем ...


Тривалість: 01:37:18
Якість:
Відео: MPEG-4 AVC, 1280х536, 23.976 fps, 4,813 Mб/с

Аудіо:

1. DD 5.1, 448 Kб/с, українська

2. DD 5.1, 448 Kб/с, англійська


Переклад: багатоголосий закадровий

Субтитри (SRT): українська



Джерело:
.


Інші Формати:
.
14.3GB - 1920 х 1080
01.1GB - _704 x _288


Срібний реліз (на рейтинг впливає 50% завантаженого)
 Трекер:    Зареєстрований   

Завантажити / скачати фільм українською



відео для новачків



 Зареєстрований:   2010-01-05 01:32
 Розмір:   3.96 GB 
 Оцінка фільму:   9.9/10 (Голосів: 15)
   
Інші релізи
imonko 
Відео Гуртом - фільмокрай
Відео Гуртом - фільмокрай


З нами з: 20.07.08
Востаннє: 31.10.16
Повідомлень: 7309

2010-12-23 15:29  
прохання до тих хто завантажив викладсти укр доріжку 5,1 окремо
St_Bandera 
Свій


З нами з: 19.09.09
Востаннє: 07.12.16
Повідомлень: 66

2010-12-30 08:38  
Будь ласка станьте хтось на роздачу
St_Bandera 
Свій


З нами з: 19.09.09
Востаннє: 07.12.16
Повідомлень: 66

2010-12-30 17:06  
Перепрошую для чого виставляти фільм який вже два дні ніхто не роздає.
deus207 
Новенький


З нами з: 19.03.10
Востаннє: 08.12.16
Повідомлень: 2

2011-07-22 12:21  
Якщо необхiдна роздача, пишiть в приватнi повiдомлення, так як швидкiсть висока, проте трафiк не резиновий Happy
Prokop94 
Свій


З нами з: 08.03.11
Востаннє: 26.10.16
Повідомлень: 122

2011-07-24 12:42  
Дякую.Фільм класний)
victordnepr 
Свій


З нами з: 16.01.11
Востаннє: 08.12.16
Повідомлень: 77

2011-07-29 13:09  
дуже хороший фільм Happy варто переглянути Happy
imonko 
Відео Гуртом - фільмокрай
Відео Гуртом - фільмокрай


З нами з: 20.07.08
Востаннє: 31.10.16
Повідомлень: 7309

2011-11-25 23:19  
imonko написано:
прохання до тих хто завантажив викладсти укр доріжку 5,1 окремо

що ніхто не допоможе? і саби українські також треба

leroykendall 
Модератор HD


З нами з: 03.01.11
Востаннє: 20.11.16
Повідомлень: 749

2011-11-25 23:48  
imonko написано:
imonko написано:
прохання до тих хто завантажив викладсти укр доріжку 5,1 окремо

що ніхто не допоможе? і саби українські також треба

Завтра викладу.

leroykendall 
Модератор HD


З нами з: 03.01.11
Востаннє: 20.11.16
Повідомлень: 749

2011-11-26 10:28  
imonko 
Відео Гуртом - фільмокрай
Відео Гуртом - фільмокрай


З нами з: 20.07.08
Востаннє: 31.10.16
Повідомлень: 7309

2011-11-26 14:11  
leroykendall щиро дякую, добре що є люди на яких можна покластись) доріжку і саби згодом закину на фтп, але варто було б знати чиє авторство, тобто хто переклав саби і зробив 5.1
leroykendall 
Модератор HD


З нами з: 03.01.11
Востаннє: 20.11.16
Повідомлень: 749

2011-11-26 14:29  
imonko
Прошу :-)
Може релізер дасть якусь інформацію.
В МедіаІнфо нічого не видно.
MediaInfo

General
Complete name : V:\After.The.Sunset.2004.720p.hurtom.mkv
Format : Matroska
File size : 3.96 GiB
Duration : 1h 37mn
Overall bit rate : 5 826 Kbps
Movie name : After The Sunset
Encoded date : UTC 2009-12-22 21:01:33
Writing application : mkvmerge v2.9.8 ('C'est le bon') built on Aug 13 2009 12:49:06
Writing library : libebml v0.7.7 + libmatroska v0.8.1

Video
ID : 1
Format : AVC
Format/Info : Advanced Video Codec
Format profile : [email protected]
Format settings, CABAC : Yes
Format settings, ReFrames : 5 frames
Muxing mode : Container [email protected]
Codec ID : V_MPEG4/ISO/AVC
Duration : 1h 37mn
Bit rate : 4 814 Kbps
Nominal bit rate : 4 927 Kbps
Width : 1 280 pixels
Height : 536 pixels
Display aspect ratio : 2.35:1
Frame rate : 23.976 fps
Resolution : 24 bits
Colorimetry : 4:2:0
Scan type : Progressive
Bits/(Pixel*Frame) : 0.293
Stream size : 3.27 GiB (83%)
Writing library : core 67 r1173M f6d3166
Encoding settings : cabac=1 / ref=5 / deblock=1:0:0 / analyse=0x3:0x133 / me=umh / subme=7 / psy_rd=1.0:0.0 / mixed_ref=1 / me_range=16 / chroma_me=1 / trellis=1 / 8x8dct=1 / cqm=0 / deadzone=21,11 / chroma_qp_offset=-2 / threads=6 / nr=0 / decimate=1 / mbaff=0 / bframes=3 / b_pyramid=1 / b_adapt=1 / b_bias=0 / direct=1 / wpredb=1 / keyint=250 / keyint_min=25 / scenecut=40 / rc=2pass / bitrate=4927 / ratetol=1.0 / qcomp=0.60 / qpmin=10 / qpmax=51 / qpstep=4 / cplxblur=20.0 / qblur=0.5 / ip_ratio=1.40 / pb_ratio=1.30 / aq=1:1.00
Language : English

Audio #1
ID : 2
Format : AC-3
Format/Info : Audio Coding 3
Codec ID : A_AC3
Duration : 1h 37mn
Bit rate mode : Constant
Bit rate : 448 Kbps
Channel(s) : 6 channels
Channel positions : Front: L C R, Surround: L R, LFE
Sampling rate : 48.0 KHz
Stream size : 312 MiB (8%)
Language : Ukrainian

Audio #2
ID : 3
Format : AC-3
Format/Info : Audio Coding 3
Codec ID : A_AC3
Duration : 1h 37mn
Bit rate mode : Constant
Bit rate : 448 Kbps
Channel(s) : 6 channels
Channel positions : Front: L C R, Surround: L R, LFE
Sampling rate : 48.0 KHz
Stream size : 312 MiB (8%)
Language : English

Text
ID : 4
Format : UTF-8
Codec ID : S_TEXT/UTF8
Codec ID/Info : UTF-8 Plain Text
Language : Ukrainian

Ваш часовий пояс: GMT + 2 Години

Нова тема   Відповісти