Завантажити та скачати торренти українською


Fusion Orchestra - Apocrypha (2007) [FLAC] | Jazz rock / Fusion

Нові коментарі

Нова тема   Відповісти
Останній раз роздавалося anmishael (2013-10-19)
Автор Повідомлення
jeether 
Новенький


З нами з: 03.01.10
Востаннє: 02.11.16
Повідомлень: 8

2010-01-03 23:47  
Fusion Orchestra - Apocrypha (2007) [FLAC] | Jazz rock / Fusion



Стиль: Fusion Jazz
Країна, місто: Україна, Севастополь
Сайти: Офіційний сайт
Видавець: автор

Виконавці:
Сергій Богдан (акустична гітара);
Євген Попов (клавішні);
Павло Воронежський (бас);
Денис Мельников (ударні).

Пісні:
    1. Introduction (1:07)
    2. 5/4 Now (4:58)
    3. Jedi's return (6:28)
    4. Elegy (7:28)
    5. Apocrypha (13:04)
    6. Nameless waltz (2:52)

Тривалість: 36:04
Мова: відсутня
Аудіо-кодек: FLAC
Джерело: CD
Додаткова інформація:
Fusion Orchestra — група севастопольських музикантів, що створюють і виконують музику, засновану на переосмисленні та поєднанні живого етносу і сучасних музичних стилістичних засобів.
Рецензія від Антона Йожик Лейба
Безумовно, дуже приємно відкривати для себе якусь нову талановиту музику – і таким відкриттям став попередній альбом Fusion Orchestra, "Октагон". Але ніколи не знаєш, що буде далі – тому здорово, коли продовження знайомства виявляється не менш цікавим, ніж початок. Особливо приємно, що альбом "Apocrypha" не повторює минулі ідеї, а відштовхується від них і робить крок вперед. Так, у цій музиці все ще добре чутно гаряче південне сонце – але все-таки на перший план виходить своєрідна прохолодна елегантність. І можна відчути, за яким законом вибудовано простір платівки: не стільки наситити, скільки якомога більше розширити цей самий простір – але м’яко. Тому тут вистачає легких, тонких штрихів, дрібних деталей – але вони не заважають дихати, не закривають обрію. Якщо Ви коли-небудь бачили великий відкритий простір – степ, наприклад – то знаєте: навіть тисяча птахів не здатна затулити, заповнити небо. Навпаки – з ними воно стає ще вищим, глибшим. І – ближчим... Особисто мені подобається чути в музиці гарно акцентовані паузи, саме вони дають змогу йти не тільки слідом за думками і почуттями музикантів, а й – поряд з ними. Тут це – і можливо, і приємно. Якщо ж повернутися до назви альбому... Хіба багато є в житті людини речей, настільки ж близьких, невловимих, світлих, необхідних, далеких і теплих, як – Таїна?.. якщо не боятись, звичайно...
EAC log (what.cd log checker score: 100 out of 100)

Код:

Exact Audio Copy V0.99 prebeta 5 from 4. May 2009

EAC extraction logfile from 3. January 2010, 21:19

Fusion Orchestra / Apocrypha

Used drive  : HL-DT-STDVDRAM GSA-H12N   Adapter: 4  ID: 0

Read mode               : Secure
Utilize accurate stream : Yes
Defeat audio cache      : Yes
Make use of C2 pointers : No

Read offset correction                      : 667
Overread into Lead-In and Lead-Out          : No
Fill up missing offset samples with silence : Yes
Delete leading and trailing silent blocks   : No
Null samples used in CRC calculations       : Yes
Used interface                              : Native Win32 interface for Win NT & 2000
Gap handling                                : Appended to previous track

Used output format              : User Defined Encoder
Selected bitrate                : 1024 kBit/s
Quality                         : High
Add ID3 tag                     : No
Command line compressor         : C:\Program Files\Exact Audio Copy\FLAC\FLAC.EXE
Additional command line options : -V -8 -T "artist=%a" -T "title=%t" -T "album=%g" -T "date=%y" -T "tracknumber=%n" -T "genre=%m" %s

TOC of the extracted CD

     Track |   Start  |  Length  | Start sector | End sector
    ---------------------------------------------------------
        1  |  0:00.00 |  1:07.45 |         0    |     5069
        2  |  1:07.45 |  5:00.08 |      5070    |    27577
        3  |  6:07.53 |  6:30.26 |     27578    |    56853
        4  | 12:38.04 |  7:30.18 |     56854    |    90621
        5  | 20:08.22 | 13:07.07 |     90622    |   149653
        6  | 33:15.29 |  2:52.69 |    149654    |   162622

Track  1

     Filename C:\Users\jeether\Desktop\fo_apocrypha\01. Introduction.wav

     Pre-gap length  0:00:02.00

     Peak level 96.9 %
     Track quality 100.0 %
     Test CRC A66A4C41
     Copy CRC A66A4C41
     Track not present in AccurateRip database
     Copy OK

Track  2

     Filename C:\Users\jeether\Desktop\fo_apocrypha\02. 5,4 Now.wav

     Pre-gap length  0:00:02.00

     Peak level 98.4 %
     Track quality 100.0 %
     Test CRC 0F19F0AF
     Copy CRC 0F19F0AF
     Track not present in AccurateRip database
     Copy OK

Track  3

     Filename C:\Users\jeether\Desktop\fo_apocrypha\03. Jedi's Return.wav

     Pre-gap length  0:00:02.00

     Peak level 97.6 %
     Track quality 100.0 %
     Test CRC BA8F56C0
     Copy CRC BA8F56C0
     Track not present in AccurateRip database
     Copy OK

Track  4

     Filename C:\Users\jeether\Desktop\fo_apocrypha\04. Elegy.wav

     Pre-gap length  0:00:02.00

     Peak level 100.0 %
     Track quality 100.0 %
     Test CRC 428BD5E6
     Copy CRC 428BD5E6
     Track not present in AccurateRip database
     Copy OK

Track  5

     Filename C:\Users\jeether\Desktop\fo_apocrypha\05. Apocrypha.wav

     Pre-gap length  0:00:02.00

     Peak level 100.0 %
     Track quality 100.0 %
     Test CRC EB52FDE2
     Copy CRC EB52FDE2
     Track not present in AccurateRip database
     Copy OK

Track  6

     Filename C:\Users\jeether\Desktop\fo_apocrypha\06. Nameless Waltz.wav

     Pre-gap length  0:00:02.00

     Peak level 97.6 %
     Track quality 100.0 %
     Test CRC 322A266B
     Copy CRC 322A266B
     Track not present in AccurateRip database
     Copy OK

None of the tracks are present in the AccurateRip database

No errors occurred

End of status report

Також на Толоці Ви можете знайти:
Fusion Orchestra - Octagon (2006) [FLAC]


Якщо Ви справді бажаєте підтримати українське - після прослуховування, якщо музика вам сподобалась, придбайте ліцензійний диск.
Підтримаймо вітчизняних виконавців!


Срібний реліз (на рейтинг впливає 50% завантаженого)
 Трекер:    Зареєстрований   

Завантажити / скачати українську музику



відео для новачків



 Зареєстрований:   2010-01-03 23:47
 Розмір:   207 MB 
 Оцінка музики:   9.8/10 (Голосів: 6)
   
jinotot 
Почесний оцифрувальник літератури


З нами з: 28.01.09
Востаннє: 04.12.16
Повідомлень: 3235

2010-01-04 00:21  
jeether, дякую за гарно оформлені релізи і за музику у чудовій якості!
Так тримати!!! Wink (2)

Ваш часовий пояс: GMT + 2 Години

Нова тема   Відповісти